<?xml version="1.0" standalone="no"?>
<!DOCTYPE svg PUBLIC "-//W3C//DTD SVG 1.1//EN" "http://www.w3.org/Graphics/SVG/1.1/DTD/svg11.dtd" >
<svg xmlns="http://www.w3.org/2000/svg" xmlns:xlink="http://www.w3.org/1999/xlink" version="1.1">
<metadata>
Created by FontForge 20161013 at Fri Apr 29 15:10:01 2011
 By ,,,
Copyright 2009, 2010, 2011 by Daniel Johnson.  Released under the terms of the Open Font License v1.1.
</metadata>
<defs>
<font id="Jura-Regular" horiz-adv-x="592" >
  <font-face 
    font-family="Jura"
    font-weight="400"
    font-stretch="normal"
    units-per-em="1024"
    panose-1="2 0 5 3 0 0 0 0 0 0"
    ascent="819"
    descent="-205"
    x-height="461"
    cap-height="636"
    bbox="-534 -205 896 838"
    underline-thickness="51"
    underline-position="-202"
    unicode-range="U+0020-FFFD"
  />
<missing-glyph horiz-adv-x="538" 
d="M156 546v-416q0 -32 11.5 -45.5t42.5 -13.5h118q31 0 42.5 13.5t11.5 45.5v416q0 32 -11.5 46t-42.5 14h-118q-31 0 -42.5 -14t-11.5 -46zM85 0v678h368v-678h-368z" />
    <glyph glyph-name=".notdef" horiz-adv-x="538" 
d="M156 546v-416q0 -32 11.5 -45.5t42.5 -13.5h118q31 0 42.5 13.5t11.5 45.5v416q0 32 -11.5 46t-42.5 14h-118q-31 0 -42.5 -14t-11.5 -46zM85 0v678h368v-678h-368z" />
    <glyph glyph-name=".null" horiz-adv-x="0" 
 />
    <glyph glyph-name="nonmarkingreturn" horiz-adv-x="0" 
 />
    <glyph glyph-name="space" unicode=" " horiz-adv-x="260" 
 />
    <glyph glyph-name="exclam" unicode="!" horiz-adv-x="244" 
d="M122 -12q-16 0 -33.5 12t-17.5 29t17.5 29t33.5 12q17 0 34.5 -12t17.5 -29t-17 -29t-35 -12zM122 649q26 0 26 -33v-419q0 -33 -27 -33q-25 0 -25 33v419q0 33 26 33z" />
    <glyph glyph-name="quotedbl" unicode="&#x22;" horiz-adv-x="295" 
d="M197 433q-25 0 -25 33v149q0 33 26 33t26 -33v-149q0 -33 -27 -33zM96 433q-25 0 -25 33v149q0 33 26 33q25 0 25 -33v-149q0 -33 -26 -33z" />
    <glyph glyph-name="numbersign" unicode="#" horiz-adv-x="603" 
d="M343 605q0 -5 -3 -17l-57 -152h124l62 170q9 24 27 24q12 0 19 -8t7 -18q0 -7 -3 -16l-56 -152h63q33 0 33 -26t-33 -26h-82l-48 -132h99q33 0 33 -27q0 -25 -33 -25h-118l-62 -170q-8 -24 -27 -24q-26 0 -26 26q0 7 3 16l57 152h-125l-61 -170q-8 -24 -27 -24
q-25 0 -25 25q0 5 3 17l56 152h-66q-33 0 -33 26t33 26h85l48 132h-103q-32 0 -32 27q0 25 32 25h122l62 170q10 24 26 24q26 0 26 -25zM265 384l-48 -132h123l48 132h-123z" />
    <glyph glyph-name="dollar" unicode="$" horiz-adv-x="587" 
d="M161 89q-32 0 -53 9t-31 26.5t-13 34.5t-3 41q0 34 26 34t26 -32q0 -35 12 -48t43 -13h104v160h-82q-129 0 -129 131q0 59 29.5 90t99.5 31h82v57q0 33 26 33t26 -32v-57h101q32 0 53 -9t31 -26.5t13 -34.5t3 -41q0 -34 -26 -34t-26 32q0 35 -12 47.5t-43 12.5h-94v-148
h75q70 0 99 -39t29 -98q0 -126 -128 -126h-75v-65q0 -32 -27 -32q-25 0 -25 31v65h-111zM416 301h-92v-160h92q59 0 59 73q0 38 -16.5 62.5t-42.5 24.5zM172 353h100v148h-100q-59 0 -59 -67q0 -39 16.5 -60t42.5 -21z" />
    <glyph glyph-name="percent" unicode="%" horiz-adv-x="559" 
d="M367 183q0 -12 9 -21t21 -9q13 0 21.5 9t8.5 21q0 13 -9 21.5t-21 8.5t-21 -8.5t-9 -21.5zM312 183q0 34 25 58t60 24q34 0 58 -24t24 -58t-24 -58t-58 -24q-35 0 -60 24t-25 58zM134 466q0 -12 9 -21t21 -9q11 0 20.5 8.5t9.5 21.5t-9.5 21.5t-20.5 8.5q-12 0 -21 -9
t-9 -21zM81 466q0 34 24.5 58t58.5 24q35 0 59.5 -24t24.5 -58t-24.5 -58t-59.5 -24q-34 0 -58.5 24t-24.5 58zM466 528q8 0 16.5 -7.5t8.5 -17.5q0 -11 -12 -24l-360 -346q-13 -12 -25 -12q-8 0 -16.5 7.5t-8.5 17.5q0 12 12 24l361 346q13 12 24 12z" />
    <glyph glyph-name="ampersand" unicode="&#x26;" horiz-adv-x="508" 
d="M386 528q0 -10 -7.5 -17.5t-18.5 -7.5q-12 0 -23.5 15t-21 33.5t-29 33.5t-44.5 15q-47 0 -85.5 -34t-38.5 -90q0 -36 38 -79l236 -272q29 43 29 102q0 36 27 36q24 0 24 -36q0 -80 -45 -143l46 -52q7 -8 7 -21q0 -12 -7 -17.5t-15 -5.5q-15 0 -30 16l-35 41
q-67 -59 -145 -59q-34 0 -68.5 10.5t-67 32t-53 61.5t-20.5 92q0 49 20.5 97t63.5 78l-11 13q-48 58 -48 106q0 76 56.5 126t122.5 50q32 0 60.5 -17t45.5 -39.5t27 -41.5t10 -26zM359 84l-202 235q-66 -42 -66 -137q0 -75 48 -109.5t109 -34.5q59 0 111 46z" />
    <glyph glyph-name="quotesingle" unicode="'" horiz-adv-x="194" 
d="M96 433q-25 0 -25 33v149q0 33 26 33q25 0 25 -33v-149q0 -33 -26 -33z" />
    <glyph glyph-name="parenleft" unicode="(" horiz-adv-x="248" 
d="M125 503v-370q0 -34 0.5 -53t4 -35.5t7 -23t14.5 -11t21 -5t31 -0.5v-52q-36 0 -56.5 5t-39.5 22.5t-26.5 54.5t-7.5 98v370q0 61 7.5 98t26.5 54.5t39.5 22.5t56.5 5v-52q-21 0 -31 -0.5t-21 -5t-14.5 -11t-7 -23t-4 -35.5t-0.5 -53z" />
    <glyph glyph-name="parenright" unicode=")" horiz-adv-x="248" 
d="M123 503q0 34 -0.5 53t-4 35.5t-7 23t-14.5 11t-21 5t-31 0.5v52q36 0 56.5 -5t39.5 -22.5t26.5 -54.5t7.5 -98v-370q0 -61 -7.5 -98t-26.5 -54.5t-39.5 -22.5t-56.5 -5v52q21 0 31 0.5t21 5t14.5 11t7 23t4 35.5t0.5 53v370z" />
    <glyph glyph-name="asterisk" unicode="*" horiz-adv-x="397" 
d="M307 404q-8 0 -20 6l-63 36v-72q0 -33 -26 -33t-26 33v72l-63 -36q-12 -6 -20 -6q-10 0 -17 8t-7 17q0 15 18 26l63 37l-63 35q-18 11 -18 26q0 7 6 16t18 9q8 0 20 -6l63 -36v72q0 33 27 33q25 0 25 -33v-72l63 36q12 6 20 6q11 0 18 -8t7 -17q0 -14 -19 -26l-62 -35
l62 -37q19 -12 19 -26q0 -7 -6.5 -16t-18.5 -9z" />
    <glyph glyph-name="plus" unicode="+" horiz-adv-x="518" 
d="M259 -12q-26 0 -26 32v184h-164q-31 0 -31 27q0 26 31 26h164v183q0 33 27 33q25 0 25 -33v-183h162q34 0 34 -28q0 -11 -9.5 -18t-24.5 -7h-162v-184q0 -32 -26 -32z" />
    <glyph glyph-name="comma" unicode="," horiz-adv-x="210" 
d="M142 41q0 -10 -5 -19l-41 -83q-10 -24 -25 -24q-22 0 -22 25q0 4 3 16l24 87q7 23 25 23q11 0 26 -6t15 -19z" />
    <glyph glyph-name="hyphen" unicode="-" horiz-adv-x="456" 
d="M73 231q0 26 31 26h245q34 0 34 -28q0 -11 -9.5 -18t-24.5 -7h-245q-31 0 -31 27z" />
    <glyph glyph-name="period" unicode="." horiz-adv-x="232" 
d="M116 70q16 0 33.5 -12t17.5 -29t-17.5 -29t-33.5 -12q-17 0 -34 12t-17 29t17 29t34 12z" />
    <glyph glyph-name="slash" unicode="/" horiz-adv-x="359" 
d="M316 626q0 -8 -3 -18l-218 -598q-8 -23 -26 -23q-9 0 -17.5 5.5t-8.5 18.5q0 6 3 18l218 598q8 23 25 23q9 0 18 -5.5t9 -18.5z" />
    <glyph glyph-name="zero" unicode="0" 
d="M116 497v-359q0 -34 33.5 -62.5t83.5 -28.5h126q50 0 83.5 28.5t33.5 62.5v359q0 34 -33.5 62.5t-83.5 28.5h-126q-50 0 -83.5 -28.5t-33.5 -62.5zM528 154q0 -70 -50.5 -114.5t-127.5 -44.5h-108q-77 0 -127.5 44.5t-50.5 114.5v328q0 70 50.5 114.5t127.5 44.5h108
q77 0 127.5 -44.5t50.5 -114.5v-328z" />
    <glyph glyph-name="one" unicode="1" 
d="M279 600l-25 -24q-14 -14 -29 -14q-13 0 -18.5 7t-5.5 15q0 13 14 26l61 62q15 13 28 13q9 0 18 -7t9 -21v-632q0 -32 -26 -32t-26 32v575z" />
    <glyph glyph-name="two" unicode="2" 
d="M528 460q0 -50 -41.5 -90.5t-101.5 -71t-120 -63t-103 -80.5t-45 -108h376q35 0 35 -27q0 -25 -35 -25h-428v49q0 71 42.5 125.5t102.5 88t120.5 62t103 63.5t42.5 77q0 83 -35 106t-129 23h-141q-32 0 -43 -13.5t-11 -46.5q0 -35 -27 -35q-25 0 -25 35q0 60 23 86t76 26
h148q111 0 163.5 -36.5t52.5 -144.5z" />
    <glyph glyph-name="three" unicode="3" 
d="M338 589h-84q-47 0 -92.5 -17t-45.5 -45q0 -33 -26 -33t-26 35q0 45 49.5 78.5t133.5 33.5h80q109 0 155 -42.5t46 -147.5q0 -33 -44 -72t-83 -53q37 -11 82 -58.5t45 -82.5q0 -105 -46 -147.5t-155 -42.5h-80q-84 0 -133.5 33.5t-49.5 77.5q0 36 26 36t26 -33
q0 -28 45.5 -45t92.5 -17h84q79 0 109 30.5t30 88.5q0 53 -64 93t-122 40q-39 0 -39 27q0 26 39 26q62 0 124 33t62 85q0 58 -30 88.5t-109 30.5z" />
    <glyph glyph-name="four" unicode="4" 
d="M498 170h-56v-146q0 -31 -26 -31q-27 0 -27 31v146h-327v63l314 408h66v-419h56q32 0 32 -26t-32 -26zM114 222h275v357z" />
    <glyph glyph-name="five" unicode="5" 
d="M93 121q5 0 32.5 -19.5t72.5 -39t93 -19.5q86 0 133 49t47 137q0 43 -15.5 75.5t-40.5 49.5t-49.5 25t-48.5 8h-242l9 125q5 72 31 100.5t83 28.5h251q32 0 32 -27q0 -25 -32 -25h-257q-25 0 -38 -13t-16 -47l-6 -90h176q84 0 149.5 -57t65.5 -153q0 -111 -64.5 -174.5
t-167.5 -63.5q-63 0 -142.5 35t-79.5 69q0 10 8 18t16 8z" />
    <glyph glyph-name="six" unicode="6" 
d="M64 209q0 87 22 163.5t53 124.5t66 82.5t61 49.5t38 15q29 0 29 -23q0 -16 -22 -27q-52 -27 -99.5 -82.5t-72.5 -136.5q64 53 157 53q100 0 166 -61.5t66 -156.5q0 -96 -66 -157.5t-166 -61.5q-101 0 -166.5 61t-65.5 157zM116 210q0 -76 48 -121.5t132 -45.5t132 45.5
t48 121.5q0 75 -48 120.5t-132 45.5t-132 -45.5t-48 -120.5z" />
    <glyph glyph-name="seven" unicode="7" 
d="M270 -10q-10 0 -19.5 5.5t-9.5 18.5q0 10 5 21l211 559h-276q-32 0 -44 -13.5t-12 -46.5q0 -35 -26 -35t-26 35q0 60 23.5 86t76.5 26h320q26 0 26 -23q0 -9 -4 -21l-218 -586q-10 -26 -27 -26z" />
    <glyph glyph-name="eight" unicode="8" 
d="M116 174q0 -43 8.5 -69t31.5 -38.5t49.5 -16t75.5 -3.5h31q49 0 75 3.5t49 16t31.5 38.5t8.5 69q0 82 -35 105t-129 23h-31q-48 0 -75 -3.5t-50 -16.5t-31.5 -39t-8.5 -69zM528 174q0 -56 -14.5 -92.5t-45 -55t-66.5 -25t-90 -6.5h-31q-43 0 -73.5 3.5t-59 15t-46 30.5
t-28 51.5t-10.5 78.5q0 112 64 152q-64 35 -64 146q0 46 11 78t27.5 49.5t47 27t58.5 12t73 2.5h31q44 0 72 -2.5t58.5 -12t47 -27t27.5 -49.5t11 -78q0 -111 -63 -146q63 -40 63 -152zM476 472q0 25 -3.5 43t-8 31t-16.5 21t-21.5 12.5t-31 6.5t-37 2.5t-46.5 0.5h-31
q-44 0 -63 -1t-44 -6.5t-34.5 -18t-16.5 -34.5t-7 -57t7 -57t16.5 -34.5t34 -18.5t44.5 -7t63 -1h31q36 0 53 0.5t40.5 4t33 10.5t20 20t14 33.5t3.5 49.5z" />
    <glyph glyph-name="nine" unicode="9" 
d="M64 471q0 45 19 78t45.5 50t64 27t64 12.5t55.5 2.5q216 0 216 -171q0 -106 -31.5 -199t-82 -154.5t-114.5 -97t-130 -35.5q-31 0 -31 27q0 26 31 26q35 0 76.5 17.5t84.5 51t79 93.5t53 135q-51 -32 -151 -32q-248 0 -248 169zM312 589q-196 0 -196 -118
q0 -38 17.5 -63.5t49.5 -36t60.5 -14t68.5 -3.5q89 0 126.5 30t37.5 86q0 119 -164 119z" />
    <glyph glyph-name="colon" unicode=":" horiz-adv-x="248" 
d="M124 121q16 0 33.5 -12t17.5 -29t-17.5 -29t-33.5 -12q-17 0 -34 12t-17 29t17 29t34 12zM124 474q16 0 33.5 -12t17.5 -29t-17.5 -29t-33.5 -12q-17 0 -34 12t-17 29t17 29t34 12z" />
    <glyph glyph-name="semicolon" unicode=";" horiz-adv-x="251" 
d="M173 92q0 -10 -5 -19l-41 -83q-10 -24 -25 -24q-22 0 -22 25q0 4 3 16l24 87q7 23 25 23q11 0 26 -6t15 -19zM124 474q16 0 33.5 -12t17.5 -29t-17.5 -29t-33.5 -12q-17 0 -34 12t-17 29t17 29t34 12z" />
    <glyph glyph-name="less" unicode="&#x3c;" horiz-adv-x="530" 
d="M436 89q-10 0 -21 7l-364 210q-18 11 -18 27q0 15 18 25l364 210q8 6 20 6q11 0 18 -6.5t7 -16.5q0 -8 -6 -16.5t-13 -11.5l-331 -190l330 -192q20 -10 20 -25q0 -7 -6 -17t-18 -10z" />
    <glyph glyph-name="equal" unicode="=" horiz-adv-x="468" 
d="M79 384q0 26 31 26h245q34 0 34 -28q0 -11 -9.5 -18t-24.5 -7h-245q-31 0 -31 27zM79 281q0 26 31 26h245q34 0 34 -28q0 -11 -9.5 -18t-24.5 -7h-245q-31 0 -31 27z" />
    <glyph glyph-name="greater" unicode="&#x3e;" horiz-adv-x="530" 
d="M94 89q-12 0 -18 10t-6 17q0 15 20 25l330 192l-331 190q-7 3 -13 11.5t-6 16.5q0 10 7 16.5t18 6.5q12 0 20 -6l364 -210q18 -10 18 -25q0 -16 -18 -27l-364 -210q-11 -7 -21 -7z" />
    <glyph glyph-name="question" unicode="?" horiz-adv-x="536" 
d="M251 70q16 0 33.5 -12t17.5 -29t-17.5 -29t-33.5 -12q-17 0 -34 12t-17 29t17 29t34 12zM277 194q0 -33 -26 -33t-26 33v144l157 43q26 7 43 35t17 68q0 42 -23.5 77.5t-73.5 35.5h-93q-38 0 -60.5 -2t-44.5 -8.5t-32.5 -20.5t-17 -37t-6.5 -58q0 -33 -26 -33
q-27 0 -27 33q0 56 14.5 92.5t45.5 54.5t66 24.5t88 6.5h76q88 0 127 -48.5t39 -116.5q0 -67 -28.5 -104t-98.5 -56l-90 -25v-105z" />
    <glyph glyph-name="at" unicode="@" horiz-adv-x="593" 
d="M283 -5q-97 0 -155 65.5t-58 180.5v154q0 115 58 180.5t155 65.5h29q97 0 155 -65.5t58 -180.5q0 -32 -1 -52t-6 -44.5t-14 -39.5t-25.5 -30.5t-40 -24t-58 -14t-79.5 -5.5q-73 0 -99.5 34t-26.5 113q0 78 26.5 112t99.5 34t100 -34t27 -112q0 -51 -10 -82q32 9 43.5 37
t11.5 108q0 92 -41 143t-120 51h-29q-80 0 -120.5 -51t-40.5 -143v-154q0 -92 40.5 -143t120.5 -51h134q31 0 43.5 13.5t12.5 48.5q0 33 25 33q27 0 27 -36q0 -23 -3.5 -40t-13 -34.5t-31 -27t-53.5 -9.5h-141zM301 237q49 0 62 19t13 76t-13 75.5t-62 18.5q-48 0 -61 -18.5
t-13 -75.5q0 -58 13 -76.5t61 -18.5z" />
    <glyph glyph-name="A" unicode="A" horiz-adv-x="570" 
d="M316 636l227 -611q3 -9 3 -16q0 -13 -9 -19t-17 -6q-17 0 -27 23l-71 192h-274l-71 -192q-10 -23 -27 -23q-8 0 -17 6t-9 19q0 7 3 16l227 611h62zM284 560l-116 -309h234z" />
    <glyph glyph-name="B" unicode="B" horiz-adv-x="605" 
d="M136 332v-280h190q98 0 134 22.5t36 103.5v28q0 81 -35 103.5t-129 22.5h-196zM84 36v564q0 36 24 36h180q111 0 164.5 -31t53.5 -119q0 -76 -49 -112q46 -17 68.5 -55.5t22.5 -109.5v-29q0 -108 -53.5 -144t-168.5 -36h-218q-24 0 -24 36zM288 384q92 0 129 19t37 78
q0 63 -36.5 80.5t-129.5 17.5h-152v-195h152z" />
    <glyph glyph-name="C" unicode="C" 
d="M436 0h-141q-116 0 -169.5 36t-53.5 144v276q0 108 53 144t164 36h147q32 0 53.5 -9.5t31 -27t12.5 -34.5t3 -41q0 -35 -26 -35t-26 33q0 35 -12 48.5t-43 13.5h-140q-48 0 -75 -3.5t-50 -16.5t-31.5 -39t-8.5 -69v-276q0 -83 36 -105.5t135 -22.5h134q32 0 43.5 14
t11.5 48q0 33 26 33t26 -36q0 -23 -3 -40t-12.5 -34.5t-31 -27t-53.5 -9.5z" />
    <glyph glyph-name="D" unicode="D" horiz-adv-x="620" 
d="M548 456v-276q0 -108 -53.5 -144t-168.5 -36h-218q-24 0 -24 36v564q0 36 24 36h224q54 0 90 -6.5t66.5 -25.5t45 -55.5t14.5 -92.5zM496 180v276q0 82 -35 105t-129 23h-196v-532h190q98 0 134 22.5t36 105.5z" />
    <glyph glyph-name="E" unicode="E" horiz-adv-x="598" 
d="M136 332v-280h378q34 0 34 -28q0 -24 -34 -24h-406q-24 0 -24 36v564q0 36 24 36h406q34 0 34 -28q0 -24 -34 -24h-378v-200h259q36 0 36 -28q0 -24 -36 -24h-259z" />
    <glyph glyph-name="F" unicode="F" horiz-adv-x="577" 
d="M136 27q0 -34 -26 -34t-26 35v572q0 36 24 36h406q34 0 34 -28q0 -24 -34 -24h-378v-200h259q36 0 36 -28q0 -24 -36 -24h-259v-305z" />
    <glyph glyph-name="G" unicode="G" horiz-adv-x="606" 
d="M484 246h-131q-36 0 -36 25q0 27 36 27h183v-189q0 -49 -19.5 -79t-80.5 -30h-147q-55 0 -91 6.5t-66.5 24.5t-45 54t-14.5 92v282q0 106 53.5 141.5t169.5 35.5h141q32 0 53.5 -9.5t31 -27t12.5 -34.5t3 -40q0 -36 -26 -36t-26 34q0 33 -11.5 47t-43.5 14h-134
q-99 0 -135 -22.5t-36 -103.5v-280q0 -81 35.5 -103.5t129.5 -22.5h140q32 0 43.5 13.5t11.5 46.5v134z" />
    <glyph glyph-name="H" unicode="H" horiz-adv-x="632" 
d="M136 27q0 -34 -26 -34t-26 34v581q0 35 24 35q28 0 28 -35v-239h360v239q0 35 25 35q27 0 27 -35v-581q0 -34 -25 -34q-27 0 -27 34v290h-360v-290z" />
    <glyph glyph-name="I" unicode="I" horiz-adv-x="220" 
d="M136 25q0 -32 -27 -32q-25 0 -25 32v585q0 33 26 33t26 -33v-585z" />
    <glyph glyph-name="J" unicode="J" horiz-adv-x="550" 
d="M251 44q95 0 130.5 22.5t35.5 103.5v441q0 32 26 32t26 -33v-441q0 -56 -14.5 -92t-45 -54t-67 -24.5t-91.5 -6.5t-91.5 6.5t-67.5 25t-45.5 55t-14.5 93.5q0 33 28 33q25 0 25 -33q0 -83 35 -105.5t131 -22.5z" />
    <glyph glyph-name="K" unicode="K" horiz-adv-x="518" 
d="M514 18q0 -10 -9 -17.5t-17 -7.5q-13 0 -25 15l-274 314l-53 -64v-233q0 -32 -27 -32q-25 0 -25 32v585q0 33 26 33t26 -33v-280l261 298q11 15 25 15q8 0 16.5 -7t8.5 -17q0 -11 -10 -24l-213 -239l279 -315q11 -13 11 -23z" />
    <glyph glyph-name="L" unicode="L" horiz-adv-x="516" 
d="M108 0q-24 0 -24 35v576q0 32 26 32t26 -32v-559h323q33 0 33 -27q0 -25 -33 -25h-351z" />
    <glyph glyph-name="M" unicode="M" horiz-adv-x="653" 
d="M326 279q-11 0 -17 8l-173 258v-517q0 -35 -26 -35t-26 34v581q0 35 24 35q18 0 30 -19l188 -278l189 278q13 19 29 19q25 0 25 -35v-581q0 -34 -27 -34q-25 0 -25 35v517l-173 -258q-6 -8 -18 -8z" />
    <glyph glyph-name="N" unicode="N" horiz-adv-x="632" 
d="M523 -7q-14 0 -20 7l-367 543v-517q0 -33 -26 -33t-26 34v581q0 35 24 35q18 0 30 -19l358 -528v511q0 36 25 36q27 0 27 -35v-581q0 -34 -25 -34z" />
    <glyph glyph-name="O" unicode="O" horiz-adv-x="594" 
d="M297 -9q-102 0 -167 63t-65 174v180q0 111 65 174t167 63t167 -63.5t65 -173.5v-180q0 -110 -65 -173.5t-167 -63.5zM297 593q-86 0 -133 -49t-47 -137v-178q0 -88 47 -137t133 -49t133 49t47 137v178q0 88 -47 137t-133 49z" />
    <glyph glyph-name="P" unicode="P" horiz-adv-x="540" 
d="M136 25q0 -32 -27 -32q-25 0 -25 32v575q0 36 24 36h181q108 0 162.5 -33t54.5 -122q0 -75 -45.5 -114.5t-127.5 -39.5h-197v-302zM289 379q92 0 128.5 20t36.5 82q0 64 -37 83.5t-128 19.5h-153v-205h153z" />
    <glyph glyph-name="Q" unicode="Q" horiz-adv-x="594" 
d="M297 593q-86 0 -133 -49t-47 -137v-178q0 -88 47 -137t133 -49q68 0 109 29l-56 52q-13 11 -13 23q0 10 7.5 18t18.5 8q12 0 26 -13l54 -53q34 46 34 122v178q0 88 -47 137t-133 49zM297 -9q-102 0 -167 63t-65 174v180q0 111 65 174t167 63t167 -63.5t65 -173.5v-180
q0 -97 -49 -157l35 -34q11 -13 11 -24q0 -9 -7 -17t-17 -8q-13 0 -24 11l-35 35q-60 -43 -146 -43z" />
    <glyph glyph-name="R" unicode="R" horiz-adv-x="569" 
d="M288 374q93 0 129.5 20t36.5 82q0 64 -37 83.5t-129 19.5h-152v-205h152zM389 332q33 -32 64 -107t46 -132t15 -68q0 -14 -7.5 -23t-19.5 -9t-18.5 9.5t-6.5 22.5t-14 66t-48 126t-76 105h-188v-297q0 -32 -27 -32q-25 0 -25 32v575q0 36 24 36h180q109 0 163.5 -33
t54.5 -122q0 -125 -117 -149z" />
    <glyph glyph-name="S" unicode="S" horiz-adv-x="599" 
d="M113 481q0 -40 17.5 -68.5t42.5 -33.5l237 -51q67 -15 97 -62t30 -110q0 -67 -39.5 -115.5t-130.5 -48.5h-83q-57 0 -94 6.5t-68.5 25t-46 55t-14.5 93.5q0 33 28 33q25 0 25 -33q0 -83 35.5 -105.5t134.5 -22.5h102q53 0 76 36t23 77q0 49 -19.5 79.5t-40.5 35.5
l-235 52q-70 15 -99.5 52.5t-29.5 105.5q0 67 41 114.5t136 47.5h76q57 0 93.5 -6.5t68.5 -24.5t46.5 -54t14.5 -93q0 -33 -27 -33q-26 0 -26 33q0 83 -35 104.5t-135 21.5h-98q-54 0 -78.5 -35t-24.5 -76z" />
    <glyph glyph-name="T" unicode="T" horiz-adv-x="481" 
d="M421 636q33 0 33 -27q0 -25 -33 -25h-152v-559q0 -32 -29 -32q-26 0 -26 32v559h-154q-33 0 -33 26t33 26h361z" />
    <glyph glyph-name="U" unicode="U" horiz-adv-x="620" 
d="M490 611q0 32 27 32q25 0 25 -33v-382q0 -110 -65 -173.5t-167 -63.5t-167 63t-65 174v382q0 33 26 33t26 -32v-382q0 -88 47 -137t133 -49t133 49t47 137v382z" />
    <glyph glyph-name="V" unicode="V" horiz-adv-x="570" 
d="M286 76l207 553q10 23 27 23q8 0 17 -6t9 -19q0 -7 -3 -16l-227 -611h-62l-227 611q-3 9 -3 16q0 13 9 19t17 6q17 0 27 -23z" />
    <glyph glyph-name="W" unicode="W" horiz-adv-x="915" 
d="M664 72l172 555q8 22 28 22q24 0 24 -19q0 -6 -4 -18l-192 -612h-58l-177 553l-176 -553h-57l-193 616q-4 12 -4 18q0 19 24 19q20 0 28 -22l174 -559l175 554q9 26 29 26q23 0 31 -26z" />
    <glyph glyph-name="X" unicode="X" horiz-adv-x="559" 
d="M497 643q8 0 17 -6t9 -20q0 -12 -8 -21l-203 -279l203 -278q8 -11 8 -22t-8.5 -17.5t-17.5 -6.5q-13 0 -25 16l-193 268l-192 -268q-12 -16 -26 -16q-9 0 -17 7t-8 17q0 11 8 22l203 278l-203 279q-8 9 -8 21q0 14 9 20t16 6q13 0 26 -18l192 -267l193 267q14 18 25 18z
" />
    <glyph glyph-name="Y" unicode="Y" horiz-adv-x="521" 
d="M234 308l-209 289q-8 12 -8 21q0 11 8 18t17 7q11 0 25 -18l193 -267l192 267q13 18 26 18q8 0 16.5 -7.5t8.5 -17.5q0 -9 -8 -21l-208 -289v-284q0 -31 -27 -31q-26 0 -26 31v284z" />
    <glyph glyph-name="Z" unicode="Z" horiz-adv-x="555" 
d="M46 0v51l401 543h-366q-36 0 -36 26t36 26h428v-53l-399 -541h364q35 0 35 -27q0 -25 -35 -25h-428z" />
    <glyph glyph-name="bracketleft" unicode="[" horiz-adv-x="255" 
d="M132 631v-626h78v-52h-130v730h130v-52h-78z" />
    <glyph glyph-name="backslash" unicode="\" horiz-adv-x="359" 
d="M95 627l218 -598q3 -12 3 -18q0 -13 -9 -18.5t-18 -5.5q-17 0 -25 23l-218 598q-3 10 -3 18q0 13 8.5 18.5t17.5 5.5q18 0 26 -23z" />
    <glyph glyph-name="bracketright" unicode="]" horiz-adv-x="255" 
d="M123 5v626h-78v52h130v-730h-130v52h78z" />
    <glyph glyph-name="asciicircum" unicode="^" horiz-adv-x="443" 
d="M222 581l-90 -200q-11 -21 -29 -21q-10 0 -16.5 6.5t-6.5 16.5q0 4 2 12l110 246h60l109 -246q2 -4 2 -12q0 -23 -23 -23q-18 0 -29 21z" />
    <glyph glyph-name="underscore" unicode="_" horiz-adv-x="475" 
d="M-5 -20q0 25 33 25h419q33 0 33 -27q0 -25 -33 -25h-419q-33 0 -33 27z" />
    <glyph glyph-name="grave" unicode="`" horiz-adv-x="212" 
d="M54 683q12 0 25 -15l96 -115q9 -11 9 -23q0 -11 -8 -18t-17 -7q-11 0 -25 15l-96 115q-9 11 -9 22t8 18.5t17 7.5z" />
    <glyph glyph-name="a" unicode="a" horiz-adv-x="554" 
d="M283 243q-51 0 -78.5 -3.5t-51.5 -16t-32.5 -37.5t-8.5 -68q0 -26 17 -46t38 -20h93q84 0 127 45.5t43 130.5v15h-147zM283 295h147v57q0 31 -11.5 44t-43.5 13h-141q-122 0 -122 -60q0 -35 -27 -35q-25 0 -25 35q0 58 46 85t121 27h155q58 0 79 -28t21 -98v-308
q0 -34 -26 -34t-26 35v35q-57 -63 -170 -63h-93q-47 0 -77 33.5t-30 89.5q0 101 54.5 136.5t168.5 35.5z" />
    <glyph glyph-name="b" unicode="b" horiz-adv-x="611" 
d="M127 398q59 63 171 63h29q115 0 168.5 -35.5t53.5 -140.5v-109q0 -105 -53.5 -140.5t-168.5 -35.5h-29q-112 0 -171 63v-35q0 -35 -26 -35t-26 34v580q0 36 24 36q28 0 28 -36v-209zM298 409q-171 0 -171 -177v-4q0 -176 171 -176h29q51 0 78.5 3.5t51 16t32 37.5t8.5 68
v107q0 43 -8.5 68t-32 37.5t-51 16t-78.5 3.5h-29z" />
    <glyph glyph-name="c" unicode="c" horiz-adv-x="584" 
d="M426 0h-141q-115 0 -169 35.5t-54 140.5v109q0 105 54 140.5t169 35.5h141q32 0 53.5 -9.5t31 -27.5t12.5 -35t3 -40q0 -35 -26 -35t-26 33q0 35 -12 48.5t-43 13.5h-134q-51 0 -78.5 -3.5t-51.5 -16t-32.5 -37.5t-8.5 -68v-107q0 -43 8.5 -68t32.5 -37.5t51.5 -16
t78.5 -3.5h134q32 0 43.5 14t11.5 48q0 33 26 33t26 -36q0 -23 -3 -40t-12.5 -34.5t-31 -27t-53.5 -9.5z" />
    <glyph glyph-name="d" unicode="d" horiz-adv-x="611" 
d="M484 461v146q0 36 28 36q24 0 24 -36v-580q0 -34 -26 -34t-26 35v35q-59 -63 -171 -63h-29q-115 0 -168.5 35.5t-53.5 140.5v109q0 105 53.5 140.5t168.5 35.5h200zM484 409h-200q-51 0 -78.5 -3.5t-51 -16t-32 -37.5t-8.5 -68v-107q0 -43 8.5 -68t32 -37.5t51 -16
t78.5 -3.5h29q171 0 171 176v181z" />
    <glyph glyph-name="e" unicode="e" 
d="M536 285v-40h-422v-68q0 -43 8.5 -68t32.5 -37.5t51.5 -16t78.5 -3.5h134q32 0 43.5 14t11.5 48q0 33 26 33t26 -36q0 -23 -3 -40t-12.5 -34.5t-31 -27t-53.5 -9.5h-141q-115 0 -169 35.5t-54 140.5v109q0 105 54 140.5t169 35.5h29q115 0 168.5 -35.5t53.5 -140.5z
M314 409h-29q-97 0 -133.5 -20.5t-37.5 -91.5h370q-1 71 -37.5 91.5t-132.5 20.5z" />
    <glyph glyph-name="f" unicode="f" horiz-adv-x="323" 
d="M293 584q-47 0 -72.5 -3.5t-48 -15.5t-31.5 -37t-9 -67h138q36 0 36 -28q0 -24 -36 -24h-138v-381q0 -35 -28 -35q-24 0 -24 35v382q-31 2 -31 27q0 22 31 24q1 55 15.5 91t45 54t65 24t87.5 6q36 0 36 -28q0 -24 -36 -24z" />
    <glyph glyph-name="g" unicode="g" horiz-adv-x="611" 
d="M536 -87q0 -65 -19 -91.5t-72 -26.5h-283q-32 0 -53.5 9.5t-31 27.5t-12.5 35t-3 40q0 35 26 35t26 -33q0 -35 12 -48.5t43 -13.5h269q29 0 37.5 10t8.5 40v103h-200q-115 0 -168.5 35.5t-53.5 140.5v109q0 105 53.5 140.5t168.5 35.5h29q112 0 171 -63v35q0 35 26 35
t26 -34v-521zM484 52v181q0 176 -171 176h-29q-51 0 -78.5 -3.5t-51 -16t-32 -37.5t-8.5 -68v-107q0 -43 8.5 -68t32 -37.5t51 -16t78.5 -3.5h200z" />
    <glyph glyph-name="h" unicode="h" horiz-adv-x="619" 
d="M298 409q-85 0 -128 -45.5t-43 -132.5v-204q0 -34 -26 -34t-26 34v580q0 36 24 36q28 0 28 -36v-209q59 63 171 63h29q115 0 168.5 -35.5t53.5 -140.5v-258q0 -34 -25 -34q-27 0 -27 34v257q0 43 -8.5 68t-32 37.5t-51 16t-78.5 3.5h-29z" />
    <glyph glyph-name="i" unicode="i" horiz-adv-x="200" 
d="M99 -12q-25 0 -25 32v420q0 33 26 33t26 -33v-420q0 -32 -27 -32zM100 642q16 0 33.5 -12t17.5 -29t-17.5 -29t-33.5 -12q-17 0 -34 12t-17 29t17 29t34 12z" />
    <glyph glyph-name="j" unicode="j" horiz-adv-x="202" 
d="M99 642q16 0 33.5 -12t17.5 -29t-17.5 -29t-33.5 -12q-17 0 -34 12t-17 29t17 29t34 12zM127 0q0 -56 -14.5 -91.5t-45 -53.5t-65.5 -24t-88 -6q-36 0 -36 27q0 25 36 25q92 0 126.5 22t34.5 101v432q0 36 27 36q25 0 25 -36v-432z" />
    <glyph glyph-name="k" unicode="k" horiz-adv-x="454" 
d="M442 19q0 -9 -7 -17t-17 -8q-11 0 -25 12l-237 229l-29 -29v-181q0 -32 -27 -32q-25 0 -25 31v586q0 33 26 33t26 -33v-341l194 185q13 12 24 12q9 0 17 -7.5t8 -18.5t-12 -23l-166 -152l239 -222q11 -13 11 -24z" />
    <glyph glyph-name="l" unicode="l" horiz-adv-x="271" 
d="M197 0h-7q-58 0 -79 28.5t-21 98.5v481q0 35 26 35t26 -35v-498q0 -32 11.5 -45t43.5 -13q35 0 35 -27q0 -25 -35 -25z" />
    <glyph glyph-name="m" unicode="m" horiz-adv-x="830" 
d="M257 409q-62 0 -96.5 -46t-34.5 -132v-204q0 -34 -26 -34t-26 34v406q0 35 24 35q28 0 28 -36v-34q28 34 57 48.5t74 14.5q68 0 110 -16.5t61 -63.5q51 80 147 80q92 0 138 -36t46 -140v-258q0 -34 -26 -34t-26 34v257q0 43 -6.5 68t-24.5 37.5t-39.5 16t-61.5 3.5
q-63 0 -98 -46t-35 -132v-204q0 -34 -25 -34q-27 0 -27 34v257q0 81 -27.5 103t-105.5 22z" />
    <glyph glyph-name="n" unicode="n" horiz-adv-x="617" 
d="M297 409q-85 0 -128 -45.5t-43 -132.5v-204q0 -34 -26 -34t-26 34v406q0 35 24 35q28 0 28 -36v-34q59 63 171 63h29q115 0 168.5 -35.5t53.5 -140.5v-258q0 -34 -25 -34q-27 0 -27 34v257q0 43 -8.5 68t-32 37.5t-51 16t-78.5 3.5h-29z" />
    <glyph glyph-name="o" unicode="o" horiz-adv-x="598" 
d="M314 0h-29q-115 0 -169 35.5t-54 140.5v109q0 105 54 140.5t169 35.5h29q115 0 168.5 -35.5t53.5 -140.5v-109q0 -105 -53.5 -140.5t-168.5 -35.5zM285 52h29q51 0 78.5 3.5t51 16t32 37.5t8.5 68v107q0 43 -8.5 68t-32 37.5t-51 16t-78.5 3.5h-29q-51 0 -78.5 -3.5
t-51.5 -16t-32.5 -37.5t-8.5 -68v-107q0 -43 8.5 -68t32.5 -37.5t51.5 -16t78.5 -3.5z" />
    <glyph glyph-name="p" unicode="p" horiz-adv-x="611" 
d="M497 284q0 43 -8.5 68t-32 37.5t-51 16t-78.5 3.5h-29q-171 0 -171 -177v-180h201q98 0 133.5 22t35.5 103v107zM549 176q0 -105 -53.5 -140.5t-167.5 -35.5h-201v-147q0 -35 -28 -35q-24 0 -24 35v581q0 34 26 34t26 -35v-35q59 63 171 63h29q115 0 168.5 -35.5
t53.5 -140.5v-109z" />
    <glyph glyph-name="q" unicode="q" horiz-adv-x="611" 
d="M114 284v-107q0 -43 8.5 -68t32 -37.5t51 -16t78.5 -3.5h200v180q0 177 -170 177h-29q-51 0 -78.5 -3.5t-51.5 -16t-32.5 -37.5t-8.5 -68zM62 176v109q0 105 54 140.5t169 35.5h29q113 0 170 -63v35q0 35 26 35t26 -34v-581q0 -35 -24 -35q-28 0 -28 35v147h-200
q-115 0 -168.5 35.5t-53.5 140.5z" />
    <glyph glyph-name="r" unicode="r" horiz-adv-x="383" 
d="M287 409q-78 0 -119.5 -46t-41.5 -132v-204q0 -34 -26 -34t-26 34v406q0 35 24 35q28 0 28 -36v-34q59 63 161 63h46q35 0 35 -26t-35 -26h-46z" />
    <glyph glyph-name="s" unicode="s" horiz-adv-x="586" 
d="M160 0q-32 0 -53.5 9.5t-31 27t-12.5 34.5t-3 40q0 36 26 36t26 -33q0 -34 11.5 -48t43.5 -14h248q59 0 59 74q0 37 -16.5 60.5t-42.5 23.5h-226q-129 0 -129 130q0 60 31 90.5t108 30.5h225q32 0 53.5 -9.5t31 -27.5t12.5 -35t3 -40q0 -35 -26 -35t-26 33q0 35 -12 48.5
t-43 13.5h-246q-59 0 -59 -69q0 -38 16.5 -58t42.5 -20h227q70 0 99 -39t29 -97q0 -62 -31.5 -94t-106.5 -32h-228z" />
    <glyph glyph-name="t" unicode="t" horiz-adv-x="344" 
d="M130 177q0 -81 34.5 -103t126.5 -22q35 0 35 -24q0 -28 -35 -28q-108 0 -160.5 36t-52.5 140v234q-31 2 -31 27q0 22 31 24v104q0 36 24 36q28 0 28 -36v-104h138q36 0 36 -28q0 -24 -36 -24h-138v-232z" />
    <glyph glyph-name="u" unicode="u" horiz-adv-x="618" 
d="M321 52q85 0 128 45.5t43 132.5v204q0 34 26 34t26 -34v-406q0 -35 -24 -35q-28 0 -28 36v34q-59 -63 -171 -63h-29q-115 0 -168.5 35.5t-53.5 140.5v258q0 34 25 34q27 0 27 -34v-257q0 -43 8.5 -68t32 -37.5t51 -16t78.5 -3.5h29z" />
    <glyph glyph-name="v" unicode="v" horiz-adv-x="509" 
d="M212 0l-180 436q-4 9 -4 16q0 21 24 21q18 0 28 -22l172 -400l178 401q9 21 28 21q24 0 24 -20q0 -8 -4 -17l-192 -436h-74z" />
    <glyph glyph-name="w" unicode="w" horiz-adv-x="792" 
d="M758 436l-155 -436h-79l-127 374l-137 -374h-79l-146 436q-4 12 -4 18q0 19 24 19q20 0 28 -22l140 -403l146 398q8 21 29 21q20 0 27 -21l140 -398l145 403q8 22 28 22q24 0 24 -19q0 -6 -4 -18z" />
    <glyph glyph-name="x" unicode="x" horiz-adv-x="512" 
d="M472 12q0 -10 -8 -16.5t-17 -6.5q-12 0 -24 12l-166 193l-167 -193q-14 -12 -25 -12q-9 0 -17 6.5t-8 16.5q0 4 10 24l171 194l-171 195q-10 12 -10 23q0 10 8 17t17 7q11 0 25 -12l167 -193l166 193q12 12 24 12q9 0 17 -7t8 -17q0 -11 -10 -23l-171 -195l171 -194
q10 -15 10 -24z" />
    <glyph glyph-name="y" unicode="y" horiz-adv-x="619" 
d="M544 -87q0 -65 -19 -91.5t-72 -26.5h-283q-32 0 -53.5 9.5t-31 27.5t-12.5 35t-3 40q0 35 26 35t26 -33q0 -35 12 -48.5t43 -13.5h269q29 0 37.5 10t8.5 40v166q-59 -63 -171 -63h-29q-115 0 -168.5 35.5t-53.5 140.5v258q0 34 25 34q27 0 27 -34v-257q0 -43 8.5 -68
t32 -37.5t51 -16t78.5 -3.5h29q85 0 128 45.5t43 132.5v204q0 34 26 34t26 -34v-521z" />
    <glyph glyph-name="z" unicode="z" horiz-adv-x="552" 
d="M126 52h267q36 0 46 18t10 59q0 36 26 36t26 -36q0 -70 -21 -99.5t-79 -29.5h-342v64l357 345h-250q-35 0 -45 -18t-10 -59q0 -36 -27 -36q-25 0 -25 36q0 71 21 100t79 29h321v-67z" />
    <glyph glyph-name="braceleft" unicode="{" horiz-adv-x="262" 
d="M163 236q0 -26 -14 -72t-14 -56q0 -70 12.5 -86.5t65.5 -16.5v-52q-70 0 -100 30t-30 125q0 19 14 65t14 63q0 22 -26 44.5t-47 32.5v8q21 11 47 34t26 45q0 17 -14 63t-14 65q0 95 30 125t100 30v-52q-52 0 -65 -17t-13 -86q0 -10 14 -56t14 -72q0 -40 -71 -83
q71 -39 71 -81z" />
    <glyph glyph-name="bar" unicode="|" horiz-adv-x="214" 
d="M133 25q0 -32 -27 -32q-25 0 -25 32v585q0 33 26 33t26 -33v-585z" />
    <glyph glyph-name="braceright" unicode="}" horiz-adv-x="262" 
d="M99 236q0 42 71 81q-71 43 -71 83q0 26 14 72t14 56q0 69 -13 86t-65 17v52q70 0 100 -30t30 -125q0 -19 -14 -65t-14 -63q0 -22 26 -45t47 -34v-8q-21 -10 -47 -32.5t-26 -44.5q0 -17 14 -63t14 -65q0 -95 -30 -125t-100 -30v52q53 0 65.5 16.5t12.5 86.5q0 10 -14 56
t-14 72z" />
    <glyph glyph-name="asciitilde" unicode="~" horiz-adv-x="425" 
d="M266 234q3 0 8 4l31 28q13 9 22 9q10 0 18 -6t8 -17q0 -14 -14 -27l-47 -39q-8 -8 -19 -8q-2 0 -4 0.5t-3.5 0.5t-3.5 1h-1l-98 36q-2 2 -6 2q-3 0 -8 -4l-31 -28q-13 -9 -22 -9t-17 6.5t-8 17.5q0 15 14 26l46 38q7 9 19 9q2 0 7 -1t6 -1l98 -36z" />
    <glyph glyph-name="exclamdown" unicode="&#xa1;" horiz-adv-x="230" 
d="M114 -170q-25 0 -25 32v420q0 33 26 33t26 -33v-420q0 -32 -27 -32zM114 491q18 0 35 -12t17 -29t-17.5 -29t-34.5 -12q-16 0 -33.5 12t-17.5 29t17.5 29t33.5 12z" />
    <glyph glyph-name="cent" unicode="&#xa2;" horiz-adv-x="478" 
d="M243 -12q-25 0 -25 32v98q-85 5 -127 44t-42 136v42q0 95 43 134.5t126 44.5v96q0 33 27 33q25 0 25 -33v-95h52q32 0 53 -9.5t30.5 -27t12.5 -34t3 -40.5q0 -36 -25 -36q-27 0 -27 34q0 35 -11.5 48t-42.5 13h-45v-298h43q31 0 43.5 13t12.5 48q0 34 25 34q27 0 27 -36
q0 -23 -3.5 -40t-13 -34.5t-31 -27t-53.5 -9.5h-50v-98q0 -32 -27 -32zM218 171v296q-63 -3 -90 -29.5t-27 -97.5v-42q0 -73 26 -98.5t91 -28.5z" />
    <glyph glyph-name="sterling" unicode="&#xa3;" horiz-adv-x="501" 
d="M65 23q0 6 1 9l38 436q5 56 21.5 93.5t44 55.5t55 24.5t63.5 6.5q71 0 112 -30.5t41 -116.5q0 -33 -27 -33q-25 0 -25 33q0 61 -25 78t-80 17q-59 0 -90 -24t-38 -104l-9 -99h34q32 0 32 -27q0 -25 -32 -25h-38l-24 -270h291q33 0 33 -27q0 -25 -33 -25h-323
q-22 0 -22 28z" />
    <glyph glyph-name="currency" unicode="&#xa4;" horiz-adv-x="495" 
d="M143 230q0 -43 31 -73.5t74 -30.5t73.5 30.5t30.5 73.5t-30.5 74t-73.5 31q-44 0 -74.5 -30.5t-30.5 -74.5zM99 230q0 48 26 85l-45 45q-12 14 -12 24q0 9 8.5 17t16.5 8q10 0 24 -12l45 -45q38 27 86 27t85 -27l44 45q13 12 25 12q8 0 16.5 -6.5t8.5 -17.5
q0 -13 -14 -25l-44 -45q27 -36 27 -85q0 -48 -27 -85l44 -44q14 -14 14 -24q0 -8 -8.5 -17t-17.5 -9q-11 0 -24 14l-44 44q-37 -27 -85 -27t-86 27l-45 -44q-12 -14 -25 -14q-8 0 -16 7t-8 18q0 12 12 25l45 45q-26 37 -26 84z" />
    <glyph glyph-name="yen" unicode="&#xa5;" horiz-adv-x="538" 
d="M39 601q-8 12 -8 22q0 11 8 18t17 7q11 0 25 -18l188 -267l187 267q12 18 26 18q8 0 16.5 -7.5t8.5 -17.5t-8 -22l-204 -293v-31h94q33 0 33 -27q0 -25 -33 -25h-94v-37h94q33 0 33 -27q0 -25 -33 -25h-94v-116q0 -32 -26 -32q-25 0 -25 32v116h-100q-32 0 -32 27
q0 25 32 25h100v37h-100q-32 0 -32 27q0 25 32 25h100v31z" />
    <glyph glyph-name="brokenbar" unicode="&#xa6;" horiz-adv-x="213" 
d="M107 648q25 0 25 -32v-215q0 -33 -27 -33q-24 0 -24 33v215q0 32 26 32zM107 268q25 0 25 -31v-215q0 -34 -27 -34q-24 0 -24 34v215q0 31 26 31z" />
    <glyph glyph-name="section" unicode="&#xa7;" horiz-adv-x="520" 
d="M399 194q46 -27 46 -95q0 -104 -105 -104h-184q-49 0 -65 24.5t-16 66.5q0 30 27 30q11 0 18 -8t7 -20q0 -26 7 -33.5t33 -7.5h184q24 0 33 12t9 40q0 65 -39 70l-175 25q-104 14 -104 112q0 71 46 94q-46 27 -46 95q0 104 105 104h185q34 0 52.5 -14.5t23 -32t4.5 -44.5
q0 -30 -26 -30q-12 0 -19 8t-7 20q0 26 -7 33.5t-33 7.5h-184q-24 0 -33 -12.5t-9 -39.5q0 -65 39 -70l175 -25q104 -14 104 -111q0 -72 -46 -95zM127 306q0 -40 52.5 -60t132.5 -20q52 0 66.5 10t14.5 53q0 42 -56.5 60.5t-128.5 18.5q-52 0 -66.5 -10t-14.5 -52z" />
    <glyph glyph-name="dieresis" unicode="&#xa8;" horiz-adv-x="367" 
d="M111 671q16 0 33.5 -12t17.5 -29t-17.5 -29t-33.5 -12q-17 0 -34 12t-17 29t17 29t34 12zM257 671q16 0 33.5 -12t17.5 -29t-17.5 -29t-33.5 -12q-17 0 -34 12t-17 29t17 29t34 12z" />
    <glyph glyph-name="copyright" unicode="&#xa9;" horiz-adv-x="612" 
d="M406 363q0 -17 -21 -17q-18 0 -18 15q0 11 -3.5 15t-14.5 4h-48q-24 0 -39.5 -11.5t-15.5 -31.5v-39q0 -20 15.5 -31.5t39.5 -11.5h48q16 0 17.5 13.5t5.5 16.5q5 4 13 4t14.5 -5t6.5 -12q0 -21 -12 -39.5t-43 -18.5h-50q-39 0 -67 21.5t-28 62.5v39q0 41 28 62.5
t67 21.5h50q30 0 42.5 -18t12.5 -40zM292 82q-53 0 -88.5 6.5t-65.5 25.5t-44.5 55.5t-14.5 92.5v111q0 56 14.5 92.5t44.5 55.5t65.5 25.5t88.5 6.5h29q108 0 160 -36.5t52 -143.5v-111q0 -107 -52 -143.5t-160 -36.5h-29zM292 134h29q91 0 125.5 23t34.5 105v111
q0 82 -34.5 105t-125.5 23h-29q-92 0 -126.5 -23t-34.5 -105v-111q0 -82 34.5 -105t126.5 -23z" />
    <glyph glyph-name="ordfeminine" unicode="&#xaa;" horiz-adv-x="380" 
d="M65 182q0 22 26 22h196q28 0 28 -24q0 -21 -28 -21h-196q-26 0 -26 23zM249 349h-57q-35 0 -48 -7.5t-13 -32.5q0 -9 5.5 -16.5t13.5 -7.5h37q59 0 62 64zM270 241q-21 0 -21 17v12q-18 -26 -62 -26h-37q-26 0 -43 20.5t-17 46.5q0 45 25 62t77 17h57v14q0 12 -4.5 16.5
t-15.5 4.5h-79q-12 0 -15.5 -4.5t-3.5 -13t-2 -11.5q-7 -9 -18 -9q-21 0 -21 17q0 26 16 44t41 18h85q58 0 58 -69v-139q-2 -17 -20 -17z" />
    <glyph glyph-name="guillemotleft" unicode="&#xab;" horiz-adv-x="503" 
d="M208 358l182 169q8 8 23 8q20 0 20 -20q0 -17 -14 -32l-155 -150l155 -151q14 -15 14 -32q0 -20 -20 -20q-16 0 -23 7l-182 169q-18 14 -18 27q0 9 18 25zM54 358l182 169q8 8 23 8q20 0 20 -20q0 -17 -14 -32l-155 -150l155 -151q14 -15 14 -32q0 -20 -20 -20
q-16 0 -23 7l-182 169q-18 14 -18 27q0 9 18 25z" />
    <glyph glyph-name="logicalnot" unicode="&#xac;" horiz-adv-x="522" 
d="M443 141q0 -33 -28 -33q-25 0 -25 33v63h-279q-31 0 -31 27q0 26 31 26h298q34 0 34 -32v-84z" />
    <glyph glyph-name="uni00AD" unicode="&#xad;" horiz-adv-x="456" 
d="M73 231q0 26 31 26h245q34 0 34 -28q0 -11 -9.5 -18t-24.5 -7h-245q-31 0 -31 27z" />
    <glyph glyph-name="registered" unicode="&#xae;" horiz-adv-x="612" 
d="M292 134h29q91 0 125.5 23t34.5 105v111q0 82 -34.5 105t-125.5 23h-29q-92 0 -126.5 -23t-34.5 -105v-111q0 -82 34.5 -105t126.5 -23zM292 82q-53 0 -88.5 6.5t-65.5 25.5t-44.5 55.5t-14.5 92.5v111q0 56 14.5 92.5t44.5 55.5t65.5 25.5t88.5 6.5h29q108 0 160 -36.5
t52 -143.5v-111q0 -107 -52 -143.5t-160 -36.5h-29zM417 217q0 -6 -6.5 -10t-13.5 -4q-9 0 -15 4.5t-6 8.5q-3 12 -21 40t-41 42h-71v-81q0 -14 -21 -14q-8 0 -14 4t-6 10v194q0 6 6 10.5t13 4.5h84q109 0 109 -65q0 -20 -13 -36.5t-35 -23.5q14 -12 32.5 -41.5t18.5 -42.5z
M305 339q39 0 53.5 4t14.5 18q0 15 -14 19.5t-54 4.5h-62v-46h62z" />
    <glyph glyph-name="macron" unicode="&#xaf;" horiz-adv-x="429" 
d="M60 700q0 26 31 26h245q34 0 34 -28q0 -11 -9.5 -18t-24.5 -7h-245q-31 0 -31 27z" />
    <glyph glyph-name="degree" unicode="&#xb0;" horiz-adv-x="403" 
d="M104 535q0 -40 28.5 -69t68.5 -29q41 0 69.5 28.5t28.5 69.5q0 40 -29 68.5t-69 28.5t-68.5 -28.5t-28.5 -68.5zM201 683q61 0 105 -43.5t44 -104.5t-44 -105t-105 -44t-104.5 44t-43.5 105t43.5 104.5t104.5 43.5z" />
    <glyph glyph-name="plusminus" unicode="&#xb1;" horiz-adv-x="579" 
d="M511 25q0 -11 -9.5 -18t-24.5 -7h-378q-31 0 -31 28q0 25 31 25h378q34 0 34 -28zM289 111q-26 0 -26 32v122h-164q-31 0 -31 28q0 25 31 25h164v122q0 33 27 33q25 0 25 -33v-122h162q34 0 34 -27q0 -26 -34 -26h-162v-122q0 -32 -26 -32z" />
    <glyph glyph-name="twosuperior" unicode="&#xb2;" horiz-adv-x="325" 
d="M280 477q0 -6 -8.5 -13.5t-18.5 -7.5h-208v27q0 36 20 64.5t48 45.5t56 31t48 28.5t20 29.5q0 32 -16 39.5t-66 7.5h-26q-38 0 -38 -26q0 -10 -7 -16.5t-16 -6.5q-8 0 -15.5 6.5t-7.5 16.5q0 30 24 49.5t56 19.5h30q31 0 50 -2.5t38 -11t28 -27.5t9 -49
q0 -28 -28.5 -53.5t-62.5 -41t-64 -39t-33 -49.5h161q11 -1 19 -7.5t8 -14.5z" />
    <glyph glyph-name="threesuperior" unicode="&#xb3;" horiz-adv-x="295" 
d="M138 729q-23 0 -41.5 -8t-18.5 -20q0 -18 -24 -18q-22 0 -22 20q0 24 28.5 46.5t73.5 22.5h12q59 0 84 -20.5t25 -67.5q0 -41 -59 -66q23 -10 41 -30.5t18 -47.5q0 -44 -25 -64t-84 -20h-12q-45 0 -73.5 22.5t-28.5 46.5q0 20 22 20q24 0 24 -18q0 -12 18.5 -20t41.5 -8
h12q40 0 51.5 10t11.5 32q0 21 -28.5 38t-58.5 17q-12 0 -17.5 7t-5.5 15q0 9 6.5 15t16.5 6q30 0 58.5 14t28.5 34q0 14 -3 22t-17.5 14t-42.5 6h-12z" />
    <glyph glyph-name="acute" unicode="&#xb4;" horiz-adv-x="212" 
d="M175 635l-96 -115q-13 -15 -25 -15q-8 0 -16.5 7.5t-8.5 17.5q0 12 9 23l96 115q14 15 25 15q9 0 17 -7.5t8 -18.5t-9 -22z" />
    <glyph glyph-name="uni00B5" unicode="&#xb5;" horiz-adv-x="574" 
d="M449 228v210q0 35 25 35q27 0 27 -35v-414q0 -36 -25 -36q-27 0 -27 36v34q-59 -63 -161 -63t-161 63v-227q0 -36 -28 -36q-24 0 -24 36v607q0 35 25 35q27 0 27 -35v-210q0 -88 41.5 -134.5t119.5 -46.5q77 0 119 46.5t42 134.5z" />
    <glyph glyph-name="paragraph" unicode="&#xb6;" horiz-adv-x="467" 
d="M352 -12q-27 0 -27 32v569h-31v-569q0 -32 -25 -32q-27 0 -27 32v312h-37q-80 0 -125 39.5t-45 114.5q0 89 53.5 122t158.5 33h130v-621q0 -32 -25 -32z" />
    <glyph glyph-name="periodcentered" unicode="&#xb7;" horiz-adv-x="242" 
d="M121 428q16 0 33.5 -12t17.5 -29t-17.5 -29t-33.5 -12q-17 0 -34 12t-17 29t17 29t34 12z" />
    <glyph glyph-name="cedilla" unicode="&#xb8;" horiz-adv-x="242" 
d="M143 10q0 -16 11 -28.5t23.5 -19.5t23.5 -21.5t11 -34.5q0 -36 -28 -58.5t-68 -22.5q-25 0 -52 12t-27 38q0 18 15 18q6 0 29 -9t37 -9q42 0 42 26q0 10 -11 20.5t-23.5 19.5t-23.5 27t-11 42h52z" />
    <glyph glyph-name="onesuperior" unicode="&#xb9;" horiz-adv-x="154" 
d="M37 685q-10 -12 -24 -12q-9 0 -14.5 6t-5.5 13q0 12 12 22l48 50q13 11 23 11q8 0 15.5 -5.5t7.5 -18.5v-271q0 -27 -22 -27t-22 27v223z" />
    <glyph glyph-name="ordmasculine" unicode="&#xba;" horiz-adv-x="380" 
d="M185 285h9q34 0 44.5 8t10.5 40v44q0 32 -10.5 40t-44.5 8h-9q-34 0 -44 -8t-10 -40v-44q0 -32 10 -40t44 -8zM185 244q-54 0 -74.5 18.5t-20.5 70.5v44q0 52 21 70.5t74 18.5h9q54 0 75 -18.5t21 -70.5v-44q0 -52 -21 -70.5t-75 -18.5h-9zM65 182q0 22 26 22h196
q28 0 28 -24q0 -21 -28 -21h-196q-26 0 -26 23z" />
    <glyph glyph-name="guillemotright" unicode="&#xbb;" horiz-adv-x="503" 
d="M449 358q18 -16 18 -25q0 -13 -18 -27l-182 -169q-7 -7 -23 -7q-20 0 -20 20q0 17 14 32l155 151l-155 150q-14 15 -14 32q0 20 20 20q15 0 23 -8zM295 358q18 -16 18 -25q0 -13 -18 -27l-182 -169q-7 -7 -23 -7q-20 0 -20 20q0 17 14 32l155 151l-155 150q-14 15 -14 32
q0 20 20 20q15 0 23 -8z" />
    <glyph glyph-name="onequarter" unicode="&#xbc;" horiz-adv-x="584" 
d="M133 551q-10 -12 -24 -12q-9 0 -14.5 6t-5.5 13q0 12 12 22l48 50q13 11 23 11q8 0 15.5 -5.5t7.5 -18.5v-271q0 -27 -22 -27t-22 27v223zM509 519q0 -12 -12 -24l-409 -410q-13 -12 -25 -12q-20 0 -20 20q0 12 12 25l410 409q12 12 24 12q20 0 20 -20zM470 95v-77
q0 -27 -22 -27t-22 27v77h-132v52l122 163h54v-172h44q26 0 26 -21q0 -22 -26 -22h-44zM426 138v118l-88 -118h88z" />
    <glyph glyph-name="onehalf" unicode="&#xbd;" horiz-adv-x="612" 
d="M506 519q0 -12 -12 -24l-409 -410q-13 -12 -25 -12q-20 0 -20 20q0 12 12 25l410 409q12 12 24 12q20 0 20 -20zM559 15q0 -6 -8.5 -13.5t-18.5 -7.5h-208v27q0 36 20 64.5t48 45.5t56 31t48 28.5t20 29.5q0 32 -16 39.5t-66 7.5h-26q-38 0 -38 -26q0 -10 -7 -16.5
t-16 -6.5q-8 0 -15.5 6.5t-7.5 16.5q0 30 24 49.5t56 19.5h30q31 0 50 -2.5t38 -11t28 -27.5t9 -49q0 -28 -28.5 -53.5t-62.5 -41t-64 -39t-33 -49.5h161q11 -1 19 -7.5t8 -14.5zM141 551q-10 -12 -24 -12q-9 0 -14.5 6t-5.5 13q0 12 12 22l48 50q13 11 23 11q8 0 15.5 -5.5
t7.5 -18.5v-271q0 -27 -22 -27t-22 27v223z" />
    <glyph glyph-name="threequarters" unicode="&#xbe;" horiz-adv-x="631" 
d="M516 95v-77q0 -27 -22 -27t-22 27v77h-132v52l122 163h54v-172h44q26 0 26 -21q0 -22 -26 -22h-44zM472 138v118l-88 -118h88zM560 519q0 -12 -12 -24l-409 -410q-13 -12 -25 -12q-20 0 -20 20q0 12 12 25l410 409q12 12 24 12q20 0 20 -20zM169 598q-23 0 -41.5 -8
t-18.5 -20q0 -18 -24 -18q-22 0 -22 20q0 24 28.5 46.5t73.5 22.5h12q59 0 84 -20.5t25 -67.5q0 -41 -59 -66q23 -10 41 -30.5t18 -47.5q0 -44 -25 -64t-84 -20h-12q-45 0 -73.5 22.5t-28.5 46.5q0 20 22 20q24 0 24 -18q0 -12 18.5 -20t41.5 -8h12q40 0 51.5 10t11.5 32
q0 21 -28.5 38t-58.5 17q-12 0 -17.5 7t-5.5 15q0 9 6.5 15t16.5 6q30 0 58.5 14t28.5 34q0 14 -3 22t-17.5 14t-42.5 6h-12z" />
    <glyph glyph-name="questiondown" unicode="&#xbf;" horiz-adv-x="529" 
d="M282 409q-17 0 -34.5 12t-17.5 29t17 29t35 12q16 0 33.5 -12t17.5 -29t-17.5 -29t-33.5 -12zM255 285q0 33 27 33q25 0 25 -33v-144l-157 -43q-26 -7 -43 -35.5t-17 -67.5q0 -42 23.5 -77.5t73.5 -35.5h94q48 0 73.5 3.5t47.5 15.5t30.5 38t8.5 69q0 33 26 33
q27 0 27 -33q0 -56 -14.5 -92.5t-45 -54.5t-65.5 -24.5t-88 -6.5h-76q-88 0 -127.5 48.5t-39.5 116.5q0 67 29 104t99 56l89 25v105z" />
    <glyph glyph-name="Agrave" unicode="&#xc0;" horiz-adv-x="570" 
d="M203 819q12 0 24 -13l70 -69q12 -14 12 -25q0 -8 -7 -16t-18 -8q-13 0 -25 13l-69 68q-13 15 -13 25q0 8 8 16.5t18 8.5zM316 636l227 -611q3 -9 3 -16q0 -13 -9 -19t-17 -6q-17 0 -27 23l-71 192h-274l-71 -192q-10 -23 -27 -23q-8 0 -17 6t-9 19q0 7 3 16l227 611h62z
M284 560l-116 -309h234z" />
    <glyph glyph-name="Aacute" unicode="&#xc1;" horiz-adv-x="570" 
d="M361 770l-70 -69q-12 -13 -24 -13q-10 0 -18 7.5t-8 16.5q0 11 13 26l69 68q12 13 25 13q11 0 18 -8.5t7 -16.5q0 -10 -12 -24zM316 636l227 -611q3 -9 3 -16q0 -13 -9 -19t-17 -6q-17 0 -27 23l-71 192h-274l-71 -192q-10 -23 -27 -23q-8 0 -17 6t-9 19q0 7 3 16
l227 611h62zM284 560l-116 -309h234z" />
    <glyph glyph-name="Acircumflex" unicode="&#xc2;" horiz-adv-x="570" 
d="M150 687l105 132h59l107 -132q6 -8 6 -18q0 -23 -23 -23q-5 0 -9.5 2t-6 3.5t-6.5 7.5t-6 7l-91 96l-90 -96q-2 -2 -5 -6t-5 -5.5t-4.5 -4t-6 -3.5t-7.5 -1q-23 0 -23 23q0 10 6 18zM316 636l227 -611q3 -9 3 -16q0 -13 -9 -19t-17 -6q-17 0 -27 23l-71 192h-274
l-71 -192q-10 -23 -27 -23q-8 0 -17 6t-9 19q0 7 3 16l227 611h62zM284 560l-116 -309h234z" />
    <glyph glyph-name="Atilde" unicode="&#xc3;" horiz-adv-x="570" 
d="M339 758q3 0 8 4l31 28q13 9 22 9q10 0 18 -6t8 -17q0 -14 -14 -27l-47 -39q-8 -8 -19 -8q-2 0 -4 0.5t-3.5 0.5t-3.5 1h-1l-98 36q-2 2 -6 2q-3 0 -8 -4l-31 -28q-13 -9 -22 -9t-17 6.5t-8 17.5q0 15 14 26l46 38q7 9 19 9q2 0 7 -1t6 -1l98 -36zM316 636l227 -611
q3 -9 3 -16q0 -13 -9 -19t-17 -6q-17 0 -27 23l-71 192h-274l-71 -192q-10 -23 -27 -23q-8 0 -17 6t-9 19q0 7 3 16l227 611h62zM284 560l-116 -309h234z" />
    <glyph glyph-name="Adieresis" unicode="&#xc4;" horiz-adv-x="570" 
d="M212 784q16 0 33.5 -12t17.5 -29t-17.5 -29t-33.5 -12q-17 0 -34 12t-17 29t17 29t34 12zM358 784q16 0 33.5 -12t17.5 -29t-17.5 -29t-33.5 -12q-17 0 -34 12t-17 29t17 29t34 12zM316 636l227 -611q3 -9 3 -16q0 -13 -9 -19t-17 -6q-17 0 -27 23l-71 192h-274l-71 -192
q-10 -23 -27 -23q-8 0 -17 6t-9 19q0 7 3 16l227 611h62zM284 560l-116 -309h234z" />
    <glyph glyph-name="Aring" unicode="&#xc5;" horiz-adv-x="570" 
d="M241 738q0 -18 13 -31t31 -13q17 0 30.5 13t13.5 31t-13.5 31t-30.5 13q-18 0 -31 -13.5t-13 -30.5zM285 819q34 0 57.5 -23.5t23.5 -57.5t-23.5 -57.5t-57.5 -23.5t-57.5 23.5t-23.5 57.5t23.5 57.5t57.5 23.5zM316 636l227 -611q3 -9 3 -16q0 -13 -9 -19t-17 -6
q-17 0 -27 23l-71 192h-274l-71 -192q-10 -23 -27 -23q-8 0 -17 6t-9 19q0 7 3 16l227 611h62zM284 560l-116 -309h234z" />
    <glyph glyph-name="AE" unicode="&#xc6;" horiz-adv-x="867" 
d="M452 332v-280h333q34 0 34 -28q0 -24 -34 -24h-361q-24 0 -24 36v163h-215l-123 -192q-15 -23 -33 -23q-20 0 -20 18q0 10 8 23l388 606q7 10 19 10h361q34 0 34 -28q0 -24 -34 -24h-333v-205h214q36 0 36 -28q0 -24 -36 -24h-214zM400 251v282l-181 -282h181z" />
    <glyph glyph-name="Ccedilla" unicode="&#xc7;" horiz-adv-x="590" 
d="M283 0q-110 1 -161 37.5t-51 142.5v286q0 108 53 144t164 36h147q32 0 53.5 -9.5t31 -27t12.5 -34.5t3 -41q0 -35 -26 -35t-26 33q0 35 -12 48.5t-43 13.5h-140q-48 0 -75 -3.5t-50 -16.5t-31.5 -39t-8.5 -69v-286q0 -83 36 -105.5t135 -22.5h134q32 0 43.5 14t11.5 48
q0 33 26 33t26 -36q0 -23 -3 -40t-12.5 -34.5t-31 -27t-53.5 -9.5h-99q3 -13 14.5 -23.5t23 -17t21 -20.5t9.5 -33q0 -36 -28 -58.5t-68 -22.5q-25 0 -52 12t-27 38q0 18 15 18q6 0 29 -9t37 -9q42 0 42 26q0 11 -16 23.5t-33 31t-20 44.5z" />
    <glyph glyph-name="Egrave" unicode="&#xc8;" horiz-adv-x="598" 
d="M230 819q12 0 24 -13l70 -69q12 -14 12 -25q0 -8 -7 -16t-18 -8q-13 0 -25 13l-69 68q-13 15 -13 25q0 8 8 16.5t18 8.5zM136 332v-280h378q34 0 34 -28q0 -24 -34 -24h-406q-24 0 -24 36v564q0 36 24 36h406q34 0 34 -28q0 -24 -34 -24h-378v-200h259q36 0 36 -28
q0 -24 -36 -24h-259z" />
    <glyph glyph-name="Eacute" unicode="&#xc9;" horiz-adv-x="598" 
d="M375 770l-70 -69q-12 -13 -24 -13q-10 0 -18 7.5t-8 16.5q0 11 13 26l69 68q12 13 25 13q11 0 18 -8.5t7 -16.5q0 -10 -12 -24zM136 332v-280h378q34 0 34 -28q0 -24 -34 -24h-406q-24 0 -24 36v564q0 36 24 36h406q34 0 34 -28q0 -24 -34 -24h-378v-200h259q36 0 36 -28
q0 -24 -36 -24h-259z" />
    <glyph glyph-name="Ecircumflex" unicode="&#xca;" horiz-adv-x="598" 
d="M176 687l105 132h59l107 -132q6 -8 6 -18q0 -23 -23 -23q-5 0 -9.5 2t-6 3.5t-6.5 7.5t-6 7l-91 96l-90 -96q-2 -2 -5 -6t-5 -5.5t-4.5 -4t-6 -3.5t-7.5 -1q-23 0 -23 23q0 10 6 18zM136 332v-280h378q34 0 34 -28q0 -24 -34 -24h-406q-24 0 -24 36v564q0 36 24 36h406
q34 0 34 -28q0 -24 -34 -24h-378v-200h259q36 0 36 -28q0 -24 -36 -24h-259z" />
    <glyph glyph-name="Edieresis" unicode="&#xcb;" horiz-adv-x="598" 
d="M239 784q16 0 33.5 -12t17.5 -29t-17.5 -29t-33.5 -12q-17 0 -34 12t-17 29t17 29t34 12zM385 784q16 0 33.5 -12t17.5 -29t-17.5 -29t-33.5 -12q-17 0 -34 12t-17 29t17 29t34 12zM136 332v-280h378q34 0 34 -28q0 -24 -34 -24h-406q-24 0 -24 36v564q0 36 24 36h406
q34 0 34 -28q0 -24 -34 -24h-378v-200h259q36 0 36 -28q0 -24 -36 -24h-259z" />
    <glyph glyph-name="Igrave" unicode="&#xcc;" horiz-adv-x="220" 
d="M30 819q12 0 24 -13l70 -69q12 -14 12 -25q0 -8 -7 -16t-18 -8q-13 0 -25 13l-69 68q-13 15 -13 25q0 8 8 16.5t18 8.5zM136 25q0 -32 -27 -32q-25 0 -25 32v585q0 33 26 33t26 -33v-585z" />
    <glyph glyph-name="Iacute" unicode="&#xcd;" horiz-adv-x="220" 
d="M205 770l-70 -69q-12 -13 -24 -13q-10 0 -18 7.5t-8 16.5q0 11 13 26l69 68q12 13 25 13q11 0 18 -8.5t7 -16.5q0 -10 -12 -24zM136 25q0 -32 -27 -32q-25 0 -25 32v585q0 33 26 33t26 -33v-585z" />
    <glyph glyph-name="Icircumflex" unicode="&#xce;" horiz-adv-x="220" 
d="M-24 687l105 132h59l107 -132q6 -8 6 -18q0 -23 -23 -23q-5 0 -9.5 2t-6 3.5t-6.5 7.5t-6 7l-91 96l-90 -96q-2 -2 -5 -6t-5 -5.5t-4.5 -4t-6 -3.5t-7.5 -1q-23 0 -23 23q0 10 6 18zM136 25q0 -32 -27 -32q-25 0 -25 32v585q0 33 26 33t26 -33v-585z" />
    <glyph glyph-name="Idieresis" unicode="&#xcf;" horiz-adv-x="220" 
d="M38 784q16 0 33.5 -12t17.5 -29t-17.5 -29t-33.5 -12q-17 0 -34 12t-17 29t17 29t34 12zM184 784q16 0 33.5 -12t17.5 -29t-17.5 -29t-33.5 -12q-17 0 -34 12t-17 29t17 29t34 12zM136 25q0 -32 -27 -32q-25 0 -25 32v585q0 33 26 33t26 -33v-585z" />
    <glyph glyph-name="Eth" unicode="&#xd0;" horiz-adv-x="620" 
d="M496 180v276q0 82 -35 105t-129 23h-196v-233h104q34 0 34 -27q0 -26 -34 -26h-104v-246h190q98 0 134 22.5t36 105.5zM548 456v-276q0 -108 -53.5 -144t-168.5 -36h-218q-24 0 -24 36v262q-32 0 -32 28q0 25 32 25v249q0 36 24 36h224q54 0 90 -6.5t66.5 -25.5t45 -55.5
t14.5 -92.5z" />
    <glyph glyph-name="Ntilde" unicode="&#xd1;" horiz-adv-x="632" 
d="M369 758q3 0 8 4l31 28q13 9 22 9q10 0 18 -6t8 -17q0 -14 -14 -27l-47 -39q-8 -8 -19 -8q-2 0 -4 0.5t-3.5 0.5t-3.5 1h-1l-98 36q-2 2 -6 2q-3 0 -8 -4l-31 -28q-13 -9 -22 -9t-17 6.5t-8 17.5q0 15 14 26l46 38q7 9 19 9q2 0 7 -1t6 -1l98 -36zM523 -7q-14 0 -20 7
l-367 543v-517q0 -33 -26 -33t-26 34v581q0 35 24 35q18 0 30 -19l358 -528v511q0 36 25 36q27 0 27 -35v-581q0 -34 -25 -34z" />
    <glyph glyph-name="Ograve" unicode="&#xd2;" horiz-adv-x="594" 
d="M216 819q12 0 24 -13l70 -69q12 -14 12 -25q0 -8 -7 -16t-18 -8q-13 0 -25 13l-69 68q-13 15 -13 25q0 8 8 16.5t18 8.5zM297 -9q-102 0 -167 63t-65 174v180q0 111 65 174t167 63t167 -63.5t65 -173.5v-180q0 -110 -65 -173.5t-167 -63.5zM297 593q-86 0 -133 -49
t-47 -137v-178q0 -88 47 -137t133 -49t133 49t47 137v178q0 88 -47 137t-133 49z" />
    <glyph glyph-name="Oacute" unicode="&#xd3;" horiz-adv-x="594" 
d="M391 770l-70 -69q-12 -13 -24 -13q-10 0 -18 7.5t-8 16.5q0 11 13 26l69 68q12 13 25 13q11 0 18 -8.5t7 -16.5q0 -10 -12 -24zM297 -9q-102 0 -167 63t-65 174v180q0 111 65 174t167 63t167 -63.5t65 -173.5v-180q0 -110 -65 -173.5t-167 -63.5zM297 593q-86 0 -133 -49
t-47 -137v-178q0 -88 47 -137t133 -49t133 49t47 137v178q0 88 -47 137t-133 49z" />
    <glyph glyph-name="Ocircumflex" unicode="&#xd4;" horiz-adv-x="594" 
d="M162 687l105 132h59l107 -132q6 -8 6 -18q0 -23 -23 -23q-5 0 -9.5 2t-6 3.5t-6.5 7.5t-6 7l-91 96l-90 -96q-2 -2 -5 -6t-5 -5.5t-4.5 -4t-6 -3.5t-7.5 -1q-23 0 -23 23q0 10 6 18zM297 -9q-102 0 -167 63t-65 174v180q0 111 65 174t167 63t167 -63.5t65 -173.5v-180
q0 -110 -65 -173.5t-167 -63.5zM297 593q-86 0 -133 -49t-47 -137v-178q0 -88 47 -137t133 -49t133 49t47 137v178q0 88 -47 137t-133 49z" />
    <glyph glyph-name="Otilde" unicode="&#xd5;" horiz-adv-x="594" 
d="M351 758q3 0 8 4l31 28q13 9 22 9q10 0 18 -6t8 -17q0 -14 -14 -27l-47 -39q-8 -8 -19 -8q-2 0 -4 0.5t-3.5 0.5t-3.5 1h-1l-98 36q-2 2 -6 2q-3 0 -8 -4l-31 -28q-13 -9 -22 -9t-17 6.5t-8 17.5q0 15 14 26l46 38q7 9 19 9q2 0 7 -1t6 -1l98 -36zM297 -9q-102 0 -167 63
t-65 174v180q0 111 65 174t167 63t167 -63.5t65 -173.5v-180q0 -110 -65 -173.5t-167 -63.5zM297 593q-86 0 -133 -49t-47 -137v-178q0 -88 47 -137t133 -49t133 49t47 137v178q0 88 -47 137t-133 49z" />
    <glyph glyph-name="Odieresis" unicode="&#xd6;" horiz-adv-x="594" 
d="M225 784q16 0 33.5 -12t17.5 -29t-17.5 -29t-33.5 -12q-17 0 -34 12t-17 29t17 29t34 12zM371 784q16 0 33.5 -12t17.5 -29t-17.5 -29t-33.5 -12q-17 0 -34 12t-17 29t17 29t34 12zM297 -9q-102 0 -167 63t-65 174v180q0 111 65 174t167 63t167 -63.5t65 -173.5v-180
q0 -110 -65 -173.5t-167 -63.5zM297 593q-86 0 -133 -49t-47 -137v-178q0 -88 47 -137t133 -49t133 49t47 137v178q0 88 -47 137t-133 49z" />
    <glyph glyph-name="multiply" unicode="&#xd7;" horiz-adv-x="493" 
d="M71 382q0 9 7 16.5t17 7.5q12 0 24 -12l127 -128l128 127q12 12 24 12q9 0 16.5 -7t7.5 -17q0 -12 -12 -24l-128 -127l127 -128q13 -11 13 -24q0 -9 -7.5 -16.5t-17.5 -7.5q-12 0 -24 12l-127 128l-128 -127q-11 -13 -24 -13q-9 0 -16.5 7.5t-7.5 17.5q0 12 12 24
l128 127l-127 128q-12 12 -12 24z" />
    <glyph glyph-name="Oslash" unicode="&#xd8;" horiz-adv-x="594" 
d="M297 593q-86 0 -133 -50t-47 -139v-182q0 -70 28 -114l270 450q-47 35 -118 35zM475 638q7 0 16.5 -6t9.5 -19q0 -8 -6 -20l-17 -27q51 -62 51 -158v-180q0 -110 -65 -173.5t-167 -63.5q-85 0 -141 42l-10 -16q-10 -19 -26 -19q-7 0 -16 6t-9 18q0 9 6 21l15 25
q-51 62 -51 160v180q0 111 65 174t167 63q87 0 143 -43l10 17q9 19 25 19zM477 414q0 68 -27 112l-270 -449q46 -34 117 -34q86 0 133 49.5t47 139.5v182z" />
    <glyph glyph-name="Ugrave" unicode="&#xd9;" horiz-adv-x="620" 
d="M229 809q12 0 25 -15l96 -115q9 -11 9 -23q0 -11 -8 -18t-17 -7q-11 0 -25 15l-96 115q-9 11 -9 22t8 18.5t17 7.5zM490 611q0 32 27 32q25 0 25 -33v-382q0 -110 -65 -173.5t-167 -63.5t-167 63t-65 174v382q0 33 26 33t26 -32v-382q0 -88 47 -137t133 -49t133 49
t47 137v382z" />
    <glyph glyph-name="Uacute" unicode="&#xda;" horiz-adv-x="620" 
d="M431 761l-96 -115q-13 -15 -25 -15q-8 0 -16.5 7.5t-8.5 17.5q0 12 9 23l96 115q14 15 25 15q9 0 17 -7.5t8 -18.5t-9 -22zM490 611q0 32 27 32q25 0 25 -33v-382q0 -110 -65 -173.5t-167 -63.5t-167 63t-65 174v382q0 33 26 33t26 -32v-382q0 -88 47 -137t133 -49
t133 49t47 137v382z" />
    <glyph glyph-name="Ucircumflex" unicode="&#xdb;" horiz-adv-x="620" 
d="M175 687l105 132h59l107 -132q6 -8 6 -18q0 -23 -23 -23q-5 0 -9.5 2t-6 3.5t-6.5 7.5t-6 7l-91 96l-90 -96q-2 -2 -5 -6t-5 -5.5t-4.5 -4t-6 -3.5t-7.5 -1q-23 0 -23 23q0 10 6 18zM490 611q0 32 27 32q25 0 25 -33v-382q0 -110 -65 -173.5t-167 -63.5t-167 63t-65 174
v382q0 33 26 33t26 -32v-382q0 -88 47 -137t133 -49t133 49t47 137v382z" />
    <glyph glyph-name="Udieresis" unicode="&#xdc;" horiz-adv-x="620" 
d="M238 784q16 0 33.5 -12t17.5 -29t-17.5 -29t-33.5 -12q-17 0 -34 12t-17 29t17 29t34 12zM384 784q16 0 33.5 -12t17.5 -29t-17.5 -29t-33.5 -12q-17 0 -34 12t-17 29t17 29t34 12zM490 611q0 32 27 32q25 0 25 -33v-382q0 -110 -65 -173.5t-167 -63.5t-167 63t-65 174
v382q0 33 26 33t26 -32v-382q0 -88 47 -137t133 -49t133 49t47 137v382z" />
    <glyph glyph-name="Yacute" unicode="&#xdd;" horiz-adv-x="521" 
d="M381 761l-96 -115q-13 -15 -25 -15q-8 0 -16.5 7.5t-8.5 17.5q0 12 9 23l96 115q14 15 25 15q9 0 17 -7.5t8 -18.5t-9 -22zM234 308l-209 289q-8 12 -8 21q0 11 8 18t17 7q11 0 25 -18l193 -267l192 267q13 18 26 18q8 0 16.5 -7.5t8.5 -17.5q0 -9 -8 -21l-208 -289v-284
q0 -31 -27 -31q-26 0 -26 31v284z" />
    <glyph glyph-name="Thorn" unicode="&#xde;" horiz-adv-x="520" 
d="M136 466h175q82 0 128 -39t46 -114t-46.5 -114.5t-128.5 -39.5h-174v-134q0 -32 -27 -32q-25 0 -25 32v548q0 33 26 33t26 -33v-107zM266 414h-130v-206h129q94 0 130.5 19.5t36.5 83.5q0 62 -36.5 82.5t-129.5 20.5z" />
    <glyph glyph-name="germandbls" unicode="&#xdf;" horiz-adv-x="464" 
d="M163 353v51q44 0 74.5 11.5t44 30.5t19 37t5.5 39q0 28 -21.5 45t-59.5 17q-58 0 -84 -22.5t-26 -100.5v-432q0 -36 -28 -36q-24 0 -24 36v381q-31 2 -31 27q0 22 31 24q1 54 15 90.5t39 54t50 24t58 6.5q64 0 98.5 -34.5t34.5 -81.5q0 -89 -74 -137q142 -41 142 -187
q0 -117 -44.5 -166.5t-106.5 -49.5q-44 0 -83.5 29t-39.5 82q0 36 28 36t28 -34q0 -33 23 -47t53 -14q36 0 63 35.5t27 129.5q0 26 -9 51t-30.5 50t-65.5 40t-106 15z" />
    <glyph glyph-name="agrave" unicode="&#xe0;" horiz-adv-x="554" 
d="M190 680q12 0 25 -15l96 -115q9 -11 9 -23q0 -11 -8 -18t-17 -7q-11 0 -25 15l-96 115q-9 11 -9 22t8 18.5t17 7.5zM283 243q-51 0 -78.5 -3.5t-51.5 -16t-32.5 -37.5t-8.5 -68q0 -26 17 -46t38 -20h93q84 0 127 45.5t43 130.5v15h-147zM283 295h147v57q0 31 -11.5 44
t-43.5 13h-141q-122 0 -122 -60q0 -35 -27 -35q-25 0 -25 35q0 58 46 85t121 27h155q58 0 79 -28t21 -98v-308q0 -34 -26 -34t-26 35v35q-57 -63 -170 -63h-93q-47 0 -77 33.5t-30 89.5q0 101 54.5 136.5t168.5 35.5z" />
    <glyph glyph-name="aacute" unicode="&#xe1;" horiz-adv-x="554" 
d="M392 635l-96 -115q-13 -15 -25 -15q-8 0 -16.5 7.5t-8.5 17.5q0 12 9 23l96 115q14 15 25 15q9 0 17 -7.5t8 -18.5t-9 -22zM283 243q-51 0 -78.5 -3.5t-51.5 -16t-32.5 -37.5t-8.5 -68q0 -26 17 -46t38 -20h93q84 0 127 45.5t43 130.5v15h-147zM283 295h147v57
q0 31 -11.5 44t-43.5 13h-141q-122 0 -122 -60q0 -35 -27 -35q-25 0 -25 35q0 58 46 85t121 27h155q58 0 79 -28t21 -98v-308q0 -34 -26 -34t-26 35v35q-57 -63 -170 -63h-93q-47 0 -77 33.5t-30 89.5q0 101 54.5 136.5t168.5 35.5z" />
    <glyph glyph-name="acircumflex" unicode="&#xe2;" horiz-adv-x="554" 
d="M136 558l105 132h59l107 -132q6 -8 6 -18q0 -23 -23 -23q-5 0 -9.5 2t-6 3.5t-6.5 7.5t-6 7l-91 96l-90 -96q-2 -2 -5 -6t-5 -5.5t-4.5 -4t-6 -3.5t-7.5 -1q-23 0 -23 23q0 10 6 18zM283 243q-51 0 -78.5 -3.5t-51.5 -16t-32.5 -37.5t-8.5 -68q0 -26 17 -46t38 -20h93
q84 0 127 45.5t43 130.5v15h-147zM283 295h147v57q0 31 -11.5 44t-43.5 13h-141q-122 0 -122 -60q0 -35 -27 -35q-25 0 -25 35q0 58 46 85t121 27h155q58 0 79 -28t21 -98v-308q0 -34 -26 -34t-26 35v35q-57 -63 -170 -63h-93q-47 0 -77 33.5t-30 89.5q0 101 54.5 136.5
t168.5 35.5z" />
    <glyph glyph-name="atilde" unicode="&#xe3;" horiz-adv-x="554" 
d="M326 574q3 0 8 4l31 28q13 9 22 9q10 0 18 -6t8 -17q0 -14 -14 -27l-47 -39q-8 -8 -19 -8q-2 0 -4 0.5t-3.5 0.5t-3.5 1h-1l-98 36q-2 2 -6 2q-3 0 -8 -4l-31 -28q-13 -9 -22 -9t-17 6.5t-8 17.5q0 15 14 26l46 38q7 9 19 9q2 0 7 -1t6 -1l98 -36zM283 243
q-51 0 -78.5 -3.5t-51.5 -16t-32.5 -37.5t-8.5 -68q0 -26 17 -46t38 -20h93q84 0 127 45.5t43 130.5v15h-147zM283 295h147v57q0 31 -11.5 44t-43.5 13h-141q-122 0 -122 -60q0 -35 -27 -35q-25 0 -25 35q0 58 46 85t121 27h155q58 0 79 -28t21 -98v-308q0 -34 -26 -34
t-26 35v35q-57 -63 -170 -63h-93q-47 0 -77 33.5t-30 89.5q0 101 54.5 136.5t168.5 35.5z" />
    <glyph glyph-name="adieresis" unicode="&#xe4;" horiz-adv-x="554" 
d="M198 599q16 0 33.5 -12t17.5 -29t-17.5 -29t-33.5 -12q-17 0 -34 12t-17 29t17 29t34 12zM344 599q16 0 33.5 -12t17.5 -29t-17.5 -29t-33.5 -12q-17 0 -34 12t-17 29t17 29t34 12zM283 243q-51 0 -78.5 -3.5t-51.5 -16t-32.5 -37.5t-8.5 -68q0 -26 17 -46t38 -20h93
q84 0 127 45.5t43 130.5v15h-147zM283 295h147v57q0 31 -11.5 44t-43.5 13h-141q-122 0 -122 -60q0 -35 -27 -35q-25 0 -25 35q0 58 46 85t121 27h155q58 0 79 -28t21 -98v-308q0 -34 -26 -34t-26 35v35q-57 -63 -170 -63h-93q-47 0 -77 33.5t-30 89.5q0 101 54.5 136.5
t168.5 35.5z" />
    <glyph glyph-name="aring" unicode="&#xe5;" horiz-adv-x="554" 
d="M228 598q0 -18 13 -31t31 -13q17 0 30.5 13t13.5 31t-13.5 31t-30.5 13q-18 0 -31 -13.5t-13 -30.5zM272 679q34 0 57.5 -23.5t23.5 -57.5t-23.5 -57.5t-57.5 -23.5t-57.5 23.5t-23.5 57.5t23.5 57.5t57.5 23.5zM283 243q-51 0 -78.5 -3.5t-51.5 -16t-32.5 -37.5
t-8.5 -68q0 -26 17 -46t38 -20h93q84 0 127 45.5t43 130.5v15h-147zM283 295h147v57q0 31 -11.5 44t-43.5 13h-141q-122 0 -122 -60q0 -35 -27 -35q-25 0 -25 35q0 58 46 85t121 27h155q58 0 79 -28t21 -98v-308q0 -34 -26 -34t-26 35v35q-57 -63 -170 -63h-93
q-47 0 -77 33.5t-30 89.5q0 101 54.5 136.5t168.5 35.5z" />
    <glyph glyph-name="ae" unicode="&#xe6;" horiz-adv-x="944" 
d="M283 243q-51 0 -78.5 -3.5t-51.5 -16t-32.5 -37.5t-8.5 -68q0 -26 17 -46t38 -20h93q84 0 127 45.5t43 130.5v15h-147zM662 409h-8q-96 0 -133 -21t-38 -93h349q-1 72 -38 93t-132 21zM884 285v-42h-401v-66q0 -43 8.5 -68t32.5 -37.5t51.5 -16t78.5 -3.5h123
q32 0 43.5 14t11.5 48q0 33 26 33t26 -36q0 -23 -3 -40t-12.5 -34.5t-31 -27t-53.5 -9.5h-130q-83 0 -132.5 16.5t-72.5 61.5q-27 -36 -83 -57t-106 -21h-93q-47 0 -77 33.5t-30 89.5q0 101 54.5 136.5t168.5 35.5h147v57q0 31 -11.5 44t-43.5 13h-141q-122 0 -122 -60
q0 -35 -27 -35q-25 0 -25 35q0 58 46 85t121 27h155q71 0 90 -47q46 47 182 47h8q115 0 168.5 -35.5t53.5 -140.5z" />
    <glyph glyph-name="ccedilla" unicode="&#xe7;" horiz-adv-x="584" 
d="M268 0q-106 2 -156 38.5t-50 137.5v109q0 105 54 140.5t169 35.5h141q32 0 53.5 -9.5t31 -27.5t12.5 -35t3 -40q0 -35 -26 -35t-26 33q0 35 -12 48.5t-43 13.5h-134q-51 0 -78.5 -3.5t-51.5 -16t-32.5 -37.5t-8.5 -68v-107q0 -43 8.5 -68t32.5 -37.5t51.5 -16t78.5 -3.5
h134q32 0 43.5 14t11.5 48q0 33 26 33t26 -36q0 -23 -3 -40t-12.5 -34.5t-31 -27t-53.5 -9.5h-105q3 -13 14.5 -23.5t23 -17t21 -20.5t9.5 -33q0 -36 -28 -58.5t-68 -22.5q-25 0 -52 12t-27 38q0 18 15 18q6 0 29 -9t37 -9q42 0 42 26q0 11 -16 23.5t-33 31t-20 44.5z" />
    <glyph glyph-name="egrave" unicode="&#xe8;" 
d="M216 683q12 0 25 -15l96 -115q9 -11 9 -23q0 -11 -8 -18t-17 -7q-11 0 -25 15l-96 115q-9 11 -9 22t8 18.5t17 7.5zM536 285v-40h-422v-68q0 -43 8.5 -68t32.5 -37.5t51.5 -16t78.5 -3.5h134q32 0 43.5 14t11.5 48q0 33 26 33t26 -36q0 -23 -3 -40t-12.5 -34.5t-31 -27
t-53.5 -9.5h-141q-115 0 -169 35.5t-54 140.5v109q0 105 54 140.5t169 35.5h29q115 0 168.5 -35.5t53.5 -140.5zM314 409h-29q-97 0 -133.5 -20.5t-37.5 -91.5h370q-1 71 -37.5 91.5t-132.5 20.5z" />
    <glyph glyph-name="eacute" unicode="&#xe9;" 
d="M421 635l-96 -115q-13 -15 -25 -15q-8 0 -16.5 7.5t-8.5 17.5q0 12 9 23l96 115q14 15 25 15q9 0 17 -7.5t8 -18.5t-9 -22zM536 285v-40h-422v-68q0 -43 8.5 -68t32.5 -37.5t51.5 -16t78.5 -3.5h134q32 0 43.5 14t11.5 48q0 33 26 33t26 -36q0 -23 -3 -40t-12.5 -34.5
t-31 -27t-53.5 -9.5h-141q-115 0 -169 35.5t-54 140.5v109q0 105 54 140.5t169 35.5h29q115 0 168.5 -35.5t53.5 -140.5zM314 409h-29q-97 0 -133.5 -20.5t-37.5 -91.5h370q-1 71 -37.5 91.5t-132.5 20.5z" />
    <glyph glyph-name="ecircumflex" unicode="&#xea;" 
d="M164 558l105 132h59l107 -132q6 -8 6 -18q0 -23 -23 -23q-5 0 -9.5 2t-6 3.5t-6.5 7.5t-6 7l-91 96l-90 -96q-2 -2 -5 -6t-5 -5.5t-4.5 -4t-6 -3.5t-7.5 -1q-23 0 -23 23q0 10 6 18zM536 285v-40h-422v-68q0 -43 8.5 -68t32.5 -37.5t51.5 -16t78.5 -3.5h134q32 0 43.5 14
t11.5 48q0 33 26 33t26 -36q0 -23 -3 -40t-12.5 -34.5t-31 -27t-53.5 -9.5h-141q-115 0 -169 35.5t-54 140.5v109q0 105 54 140.5t169 35.5h29q115 0 168.5 -35.5t53.5 -140.5zM314 409h-29q-97 0 -133.5 -20.5t-37.5 -91.5h370q-1 71 -37.5 91.5t-132.5 20.5z" />
    <glyph glyph-name="edieresis" unicode="&#xeb;" 
d="M227 599q16 0 33.5 -12t17.5 -29t-17.5 -29t-33.5 -12q-17 0 -34 12t-17 29t17 29t34 12zM373 599q16 0 33.5 -12t17.5 -29t-17.5 -29t-33.5 -12q-17 0 -34 12t-17 29t17 29t34 12zM536 285v-40h-422v-68q0 -43 8.5 -68t32.5 -37.5t51.5 -16t78.5 -3.5h134q32 0 43.5 14
t11.5 48q0 33 26 33t26 -36q0 -23 -3 -40t-12.5 -34.5t-31 -27t-53.5 -9.5h-141q-115 0 -169 35.5t-54 140.5v109q0 105 54 140.5t169 35.5h29q115 0 168.5 -35.5t53.5 -140.5zM314 409h-29q-97 0 -133.5 -20.5t-37.5 -91.5h370q-1 71 -37.5 91.5t-132.5 20.5z" />
    <glyph glyph-name="igrave" unicode="&#xec;" horiz-adv-x="200" 
d="M-4 683q12 0 25 -15l96 -115q9 -11 9 -23q0 -11 -8 -18t-17 -7q-11 0 -25 15l-96 115q-9 11 -9 22t8 18.5t17 7.5zM99 -12q-25 0 -25 32v420q0 33 26 33t26 -33v-420q0 -32 -27 -32z" />
    <glyph glyph-name="iacute" unicode="&#xed;" horiz-adv-x="200" 
d="M220 635l-96 -115q-13 -15 -25 -15q-8 0 -16.5 7.5t-8.5 17.5q0 12 9 23l96 115q14 15 25 15q9 0 17 -7.5t8 -18.5t-9 -22zM99 -12q-25 0 -25 32v420q0 33 26 33t26 -33v-420q0 -32 -27 -32z" />
    <glyph glyph-name="icircumflex" unicode="&#xee;" horiz-adv-x="200" 
d="M-35 558l105 132h59l107 -132q6 -8 6 -18q0 -23 -23 -23q-5 0 -9.5 2t-6 3.5t-6.5 7.5t-6 7l-91 96l-90 -96q-2 -2 -5 -6t-5 -5.5t-4.5 -4t-6 -3.5t-7.5 -1q-23 0 -23 23q0 10 6 18zM99 -12q-25 0 -25 32v420q0 33 26 33t26 -33v-420q0 -32 -27 -32z" />
    <glyph glyph-name="idieresis" unicode="&#xef;" horiz-adv-x="200" 
d="M27 606q16 0 33.5 -12t17.5 -29t-17.5 -29t-33.5 -12q-17 0 -34 12t-17 29t17 29t34 12zM173 606q16 0 33.5 -12t17.5 -29t-17.5 -29t-33.5 -12q-17 0 -34 12t-17 29t17 29t34 12zM99 -12q-25 0 -25 32v420q0 33 26 33t26 -33v-420q0 -32 -27 -32z" />
    <glyph glyph-name="eth" unicode="&#xf0;" horiz-adv-x="566" 
d="M153 583q-31 0 -31 25q0 28 31 28q71 0 135 -26l33 32q14 12 26 12q9 0 17.5 -7t8.5 -17q0 -12 -13 -25l-21 -20q172 -106 172 -363q0 -98 -58 -168t-158 -70q-110 0 -179 63t-69 173q0 111 69 173.5t179 62.5q76 0 126 -39q-41 87 -122 129l-50 -47q-12 -12 -24 -12
q-9 0 -18.5 7.5t-9.5 17.5t14 24l34 32q-44 15 -92 15zM459 221q0 76 -41 129.5t-123 53.5q-90 0 -143 -51.5t-53 -132.5t53 -132.5t143 -51.5q80 0 122 58t42 127z" />
    <glyph glyph-name="ntilde" unicode="&#xf1;" horiz-adv-x="617" 
d="M365 574q3 0 8 4l31 28q13 9 22 9q10 0 18 -6t8 -17q0 -14 -14 -27l-47 -39q-8 -8 -19 -8q-2 0 -4 0.5t-3.5 0.5t-3.5 1h-1l-98 36q-2 2 -6 2q-3 0 -8 -4l-31 -28q-13 -9 -22 -9t-17 6.5t-8 17.5q0 15 14 26l46 38q7 9 19 9q2 0 7 -1t6 -1l98 -36zM297 409
q-85 0 -128 -45.5t-43 -132.5v-204q0 -34 -26 -34t-26 34v406q0 35 24 35q28 0 28 -36v-34q59 63 171 63h29q115 0 168.5 -35.5t53.5 -140.5v-258q0 -34 -25 -34q-27 0 -27 34v257q0 43 -8.5 68t-32 37.5t-51 16t-78.5 3.5h-29z" />
    <glyph glyph-name="ograve" unicode="&#xf2;" horiz-adv-x="598" 
d="M218 680q12 0 25 -15l96 -115q9 -11 9 -23q0 -11 -8 -18t-17 -7q-11 0 -25 15l-96 115q-9 11 -9 22t8 18.5t17 7.5zM314 0h-29q-115 0 -169 35.5t-54 140.5v109q0 105 54 140.5t169 35.5h29q115 0 168.5 -35.5t53.5 -140.5v-109q0 -105 -53.5 -140.5t-168.5 -35.5z
M285 52h29q51 0 78.5 3.5t51 16t32 37.5t8.5 68v107q0 43 -8.5 68t-32 37.5t-51 16t-78.5 3.5h-29q-51 0 -78.5 -3.5t-51.5 -16t-32.5 -37.5t-8.5 -68v-107q0 -43 8.5 -68t32.5 -37.5t51.5 -16t78.5 -3.5z" />
    <glyph glyph-name="oacute" unicode="&#xf3;" horiz-adv-x="598" 
d="M419 635l-96 -115q-13 -15 -25 -15q-8 0 -16.5 7.5t-8.5 17.5q0 12 9 23l96 115q14 15 25 15q9 0 17 -7.5t8 -18.5t-9 -22zM314 0h-29q-115 0 -169 35.5t-54 140.5v109q0 105 54 140.5t169 35.5h29q115 0 168.5 -35.5t53.5 -140.5v-109q0 -105 -53.5 -140.5t-168.5 -35.5
zM285 52h29q51 0 78.5 3.5t51 16t32 37.5t8.5 68v107q0 43 -8.5 68t-32 37.5t-51 16t-78.5 3.5h-29q-51 0 -78.5 -3.5t-51.5 -16t-32.5 -37.5t-8.5 -68v-107q0 -43 8.5 -68t32.5 -37.5t51.5 -16t78.5 -3.5z" />
    <glyph glyph-name="ocircumflex" unicode="&#xf4;" horiz-adv-x="598" 
d="M164 558l105 132h59l107 -132q6 -8 6 -18q0 -23 -23 -23q-5 0 -9.5 2t-6 3.5t-6.5 7.5t-6 7l-91 96l-90 -96q-2 -2 -5 -6t-5 -5.5t-4.5 -4t-6 -3.5t-7.5 -1q-23 0 -23 23q0 10 6 18zM314 0h-29q-115 0 -169 35.5t-54 140.5v109q0 105 54 140.5t169 35.5h29
q115 0 168.5 -35.5t53.5 -140.5v-109q0 -105 -53.5 -140.5t-168.5 -35.5zM285 52h29q51 0 78.5 3.5t51 16t32 37.5t8.5 68v107q0 43 -8.5 68t-32 37.5t-51 16t-78.5 3.5h-29q-51 0 -78.5 -3.5t-51.5 -16t-32.5 -37.5t-8.5 -68v-107q0 -43 8.5 -68t32.5 -37.5t51.5 -16
t78.5 -3.5z" />
    <glyph glyph-name="otilde" unicode="&#xf5;" horiz-adv-x="598" 
d="M353 574q3 0 8 4l31 28q13 9 22 9q10 0 18 -6t8 -17q0 -14 -14 -27l-47 -39q-8 -8 -19 -8q-2 0 -4 0.5t-3.5 0.5t-3.5 1h-1l-98 36q-2 2 -6 2q-3 0 -8 -4l-31 -28q-13 -9 -22 -9t-17 6.5t-8 17.5q0 15 14 26l46 38q7 9 19 9q2 0 7 -1t6 -1l98 -36zM314 0h-29
q-115 0 -169 35.5t-54 140.5v109q0 105 54 140.5t169 35.5h29q115 0 168.5 -35.5t53.5 -140.5v-109q0 -105 -53.5 -140.5t-168.5 -35.5zM285 52h29q51 0 78.5 3.5t51 16t32 37.5t8.5 68v107q0 43 -8.5 68t-32 37.5t-51 16t-78.5 3.5h-29q-51 0 -78.5 -3.5t-51.5 -16
t-32.5 -37.5t-8.5 -68v-107q0 -43 8.5 -68t32.5 -37.5t51.5 -16t78.5 -3.5z" />
    <glyph glyph-name="odieresis" unicode="&#xf6;" horiz-adv-x="598" 
d="M227 599q16 0 33.5 -12t17.5 -29t-17.5 -29t-33.5 -12q-17 0 -34 12t-17 29t17 29t34 12zM373 599q16 0 33.5 -12t17.5 -29t-17.5 -29t-33.5 -12q-17 0 -34 12t-17 29t17 29t34 12zM314 0h-29q-115 0 -169 35.5t-54 140.5v109q0 105 54 140.5t169 35.5h29
q115 0 168.5 -35.5t53.5 -140.5v-109q0 -105 -53.5 -140.5t-168.5 -35.5zM285 52h29q51 0 78.5 3.5t51 16t32 37.5t8.5 68v107q0 43 -8.5 68t-32 37.5t-51 16t-78.5 3.5h-29q-51 0 -78.5 -3.5t-51.5 -16t-32.5 -37.5t-8.5 -68v-107q0 -43 8.5 -68t32.5 -37.5t51.5 -16
t78.5 -3.5z" />
    <glyph glyph-name="divide" unicode="&#xf7;" horiz-adv-x="439" 
d="M64 231q0 26 31 26h245q34 0 34 -28q0 -11 -9.5 -18t-24.5 -7h-245q-31 0 -31 27zM215 169q16 0 33.5 -12t17.5 -29t-17.5 -29t-33.5 -12q-17 0 -34 12t-17 29t17 29t34 12zM215 374q16 0 33.5 -12t17.5 -29t-17.5 -29t-33.5 -12q-17 0 -34 12t-17 29t17 29t34 12z" />
    <glyph glyph-name="oslash" unicode="&#xf8;" horiz-adv-x="598" 
d="M492 469q10 0 18 -7t8 -18q0 -8 -10 -23l-9 -10q37 -42 37 -126v-109q0 -105 -53.5 -140.5t-168.5 -35.5h-29q-96 0 -142 19l-11 -12q-13 -15 -25 -15q-9 0 -17.5 7.5t-8.5 17.5q0 9 11 23l8 9q-38 43 -38 127v109q0 105 54 140.5t169 35.5h29q99 0 143 -21l10 14
q12 15 25 15zM285 52h29q98 0 134 22.5t36 105.5v111q0 61 -19 89l-287 -319q33 -9 107 -9zM114 170q0 -61 20 -90l287 320q-33 9 -107 9h-29q-99 0 -135 -22.5t-36 -105.5v-111z" />
    <glyph glyph-name="ugrave" unicode="&#xf9;" horiz-adv-x="618" 
d="M225 680q12 0 25 -15l96 -115q9 -11 9 -23q0 -11 -8 -18t-17 -7q-11 0 -25 15l-96 115q-9 11 -9 22t8 18.5t17 7.5zM321 52q85 0 128 45.5t43 132.5v204q0 34 26 34t26 -34v-406q0 -35 -24 -35q-28 0 -28 36v34q-59 -63 -171 -63h-29q-115 0 -168.5 35.5t-53.5 140.5v258
q0 34 25 34q27 0 27 -34v-257q0 -43 8.5 -68t32 -37.5t51 -16t78.5 -3.5h29z" />
    <glyph glyph-name="uacute" unicode="&#xfa;" horiz-adv-x="618" 
d="M428 635l-96 -115q-13 -15 -25 -15q-8 0 -16.5 7.5t-8.5 17.5q0 12 9 23l96 115q14 15 25 15q9 0 17 -7.5t8 -18.5t-9 -22zM321 52q85 0 128 45.5t43 132.5v204q0 34 26 34t26 -34v-406q0 -35 -24 -35q-28 0 -28 36v34q-59 -63 -171 -63h-29q-115 0 -168.5 35.5
t-53.5 140.5v258q0 34 25 34q27 0 27 -34v-257q0 -43 8.5 -68t32 -37.5t51 -16t78.5 -3.5h29z" />
    <glyph glyph-name="ucircumflex" unicode="&#xfb;" horiz-adv-x="618" 
d="M171 558l105 132h59l107 -132q6 -8 6 -18q0 -23 -23 -23q-5 0 -9.5 2t-6 3.5t-6.5 7.5t-6 7l-91 96l-90 -96q-2 -2 -5 -6t-5 -5.5t-4.5 -4t-6 -3.5t-7.5 -1q-23 0 -23 23q0 10 6 18zM321 52q85 0 128 45.5t43 132.5v204q0 34 26 34t26 -34v-406q0 -35 -24 -35
q-28 0 -28 36v34q-59 -63 -171 -63h-29q-115 0 -168.5 35.5t-53.5 140.5v258q0 34 25 34q27 0 27 -34v-257q0 -43 8.5 -68t32 -37.5t51 -16t78.5 -3.5h29z" />
    <glyph glyph-name="udieresis" unicode="&#xfc;" horiz-adv-x="618" 
d="M234 599q16 0 33.5 -12t17.5 -29t-17.5 -29t-33.5 -12q-17 0 -34 12t-17 29t17 29t34 12zM380 599q16 0 33.5 -12t17.5 -29t-17.5 -29t-33.5 -12q-17 0 -34 12t-17 29t17 29t34 12zM321 52q85 0 128 45.5t43 132.5v204q0 34 26 34t26 -34v-406q0 -35 -24 -35
q-28 0 -28 36v34q-59 -63 -171 -63h-29q-115 0 -168.5 35.5t-53.5 140.5v258q0 34 25 34q27 0 27 -34v-257q0 -43 8.5 -68t32 -37.5t51 -16t78.5 -3.5h29z" />
    <glyph glyph-name="yacute" unicode="&#xfd;" horiz-adv-x="619" 
d="M428 635l-96 -115q-13 -15 -25 -15q-8 0 -16.5 7.5t-8.5 17.5q0 12 9 23l96 115q14 15 25 15q9 0 17 -7.5t8 -18.5t-9 -22zM544 -87q0 -65 -19 -91.5t-72 -26.5h-283q-32 0 -53.5 9.5t-31 27.5t-12.5 35t-3 40q0 35 26 35t26 -33q0 -35 12 -48.5t43 -13.5h269
q29 0 37.5 10t8.5 40v166q-59 -63 -171 -63h-29q-115 0 -168.5 35.5t-53.5 140.5v258q0 34 25 34q27 0 27 -34v-257q0 -43 8.5 -68t32 -37.5t51 -16t78.5 -3.5h29q85 0 128 45.5t43 132.5v204q0 34 26 34t26 -34v-521z" />
    <glyph glyph-name="thorn" unicode="&#xfe;" horiz-adv-x="611" 
d="M497 284q0 43 -8.5 68t-32 37.5t-51 16t-78.5 3.5h-29q-171 0 -171 -177v-180h201q98 0 133.5 22t35.5 103v107zM549 176q0 -105 -53.5 -140.5t-167.5 -35.5h-201v-147q0 -35 -28 -35q-24 0 -24 35v755q0 35 26 35t26 -35v-210q59 63 171 63h29q115 0 168.5 -35.5
t53.5 -140.5v-109z" />
    <glyph glyph-name="ydieresis" unicode="&#xff;" horiz-adv-x="619" 
d="M234 599q16 0 33.5 -12t17.5 -29t-17.5 -29t-33.5 -12q-17 0 -34 12t-17 29t17 29t34 12zM380 599q16 0 33.5 -12t17.5 -29t-17.5 -29t-33.5 -12q-17 0 -34 12t-17 29t17 29t34 12zM544 -87q0 -65 -19 -91.5t-72 -26.5h-283q-32 0 -53.5 9.5t-31 27.5t-12.5 35t-3 40
q0 35 26 35t26 -33q0 -35 12 -48.5t43 -13.5h269q29 0 37.5 10t8.5 40v166q-59 -63 -171 -63h-29q-115 0 -168.5 35.5t-53.5 140.5v258q0 34 25 34q27 0 27 -34v-257q0 -43 8.5 -68t32 -37.5t51 -16t78.5 -3.5h29q85 0 128 45.5t43 132.5v204q0 34 26 34t26 -34v-521z" />
    <glyph glyph-name="Amacron" unicode="&#x100;" horiz-adv-x="570" 
d="M130 734q0 26 31 26h245q34 0 34 -28q0 -11 -9.5 -18t-24.5 -7h-245q-31 0 -31 27zM316 636l227 -611q3 -9 3 -16q0 -13 -9 -19t-17 -6q-17 0 -27 23l-71 192h-274l-71 -192q-10 -23 -27 -23q-8 0 -17 6t-9 19q0 7 3 16l227 611h62zM284 560l-116 -309h234z" />
    <glyph glyph-name="amacron" unicode="&#x101;" horiz-adv-x="554" 
d="M116 549q0 26 31 26h245q34 0 34 -28q0 -11 -9.5 -18t-24.5 -7h-245q-31 0 -31 27zM283 243q-51 0 -78.5 -3.5t-51.5 -16t-32.5 -37.5t-8.5 -68q0 -26 17 -46t38 -20h93q84 0 127 45.5t43 130.5v15h-147zM283 295h147v57q0 31 -11.5 44t-43.5 13h-141q-122 0 -122 -60
q0 -35 -27 -35q-25 0 -25 35q0 58 46 85t121 27h155q58 0 79 -28t21 -98v-308q0 -34 -26 -34t-26 35v35q-57 -63 -170 -63h-93q-47 0 -77 33.5t-30 89.5q0 101 54.5 136.5t168.5 35.5z" />
    <glyph glyph-name="Abreve" unicode="&#x102;" horiz-adv-x="570" 
d="M316 636l227 -611q3 -9 3 -16q0 -13 -9 -19t-17 -6q-17 0 -27 23l-71 192h-274l-71 -192q-10 -23 -27 -23q-8 0 -17 6t-9 19q0 7 3 16l227 611h62zM284 560l-116 -309h234zM284 688q-46 0 -83 35.5t-37 95.5h53q0 -43 20.5 -60t46.5 -17t46.5 17t20.5 60h53
q0 -61 -37.5 -96t-82.5 -35z" />
    <glyph glyph-name="abreve" unicode="&#x103;" horiz-adv-x="554" 
d="M272 522q-46 0 -83 35.5t-37 95.5h53q0 -43 20.5 -60t46.5 -17t46.5 17t20.5 60h53q0 -61 -37.5 -96t-82.5 -35zM283 243q-51 0 -78.5 -3.5t-51.5 -16t-32.5 -37.5t-8.5 -68q0 -26 17 -46t38 -20h93q84 0 127 45.5t43 130.5v15h-147zM283 295h147v57q0 31 -11.5 44
t-43.5 13h-141q-122 0 -122 -60q0 -35 -27 -35q-25 0 -25 35q0 58 46 85t121 27h155q58 0 79 -28t21 -98v-308q0 -34 -26 -34t-26 35v35q-57 -63 -170 -63h-93q-47 0 -77 33.5t-30 89.5q0 101 54.5 136.5t168.5 35.5z" />
    <glyph glyph-name="Aogonek" unicode="&#x104;" horiz-adv-x="569" 
d="M284 560l-116 -309h234zM50 -16q-8 0 -17 6t-9 19q0 7 3 16l231 621h54l231 -621q3 -9 3 -16q0 -10 -11 -21q-20 -19 -35 -48t-15 -41q0 -54 42 -54q16 0 38 8.5t28 8.5q15 0 15 -17q0 -26 -27 -38t-52 -12q-41 0 -68.5 29t-27.5 75q0 43 58 114l-69 186h-274l-71 -192
q-10 -23 -27 -23z" />
    <glyph glyph-name="aogonek" unicode="&#x105;" horiz-adv-x="554" 
d="M283 295h147v57q0 31 -11.5 44t-43.5 13h-141q-122 0 -122 -60q0 -35 -27 -35q-25 0 -25 35q0 58 46 85t121 27h155q58 0 79 -28t21 -98v-308q0 -23 -13 -31q-23 -14 -40 -47t-17 -49q0 -54 42 -54q16 0 38 8.5t28 8.5q15 0 15 -17q0 -26 -27 -38t-52 -12q-41 0 -68.5 29
t-27.5 75q0 24 22.5 62t47.5 67v34q-57 -63 -170 -63h-93q-47 0 -77 33.5t-30 89.5q0 101 54.5 136.5t168.5 35.5zM283 243q-51 0 -78.5 -3.5t-51.5 -16t-32.5 -37.5t-8.5 -68q0 -26 17 -46t38 -20h93q84 0 127 45.5t43 130.5v15h-147z" />
    <glyph glyph-name="Cacute" unicode="&#x106;" 
d="M436 0h-141q-116 0 -169.5 36t-53.5 144v276q0 108 53 144t164 36h147q32 0 53.5 -9.5t31 -27t12.5 -34.5t3 -41q0 -35 -26 -35t-26 33q0 35 -12 48.5t-43 13.5h-140q-48 0 -75 -3.5t-50 -16.5t-31.5 -39t-8.5 -69v-276q0 -83 36 -105.5t135 -22.5h134q32 0 43.5 14
t11.5 48q0 33 26 33t26 -36q0 -23 -3 -40t-12.5 -34.5t-31 -27t-53.5 -9.5zM406 771l-70 -69q-12 -13 -24 -13q-10 0 -18 7.5t-8 16.5q0 11 13 26l69 68q12 13 25 13q11 0 18 -8.5t7 -16.5q0 -10 -12 -24z" />
    <glyph glyph-name="cacute" unicode="&#x107;" horiz-adv-x="584" 
d="M426 0h-141q-115 0 -169 35.5t-54 140.5v109q0 105 54 140.5t169 35.5h141q32 0 53.5 -9.5t31 -27.5t12.5 -35t3 -40q0 -35 -26 -35t-26 33q0 35 -12 48.5t-43 13.5h-134q-51 0 -78.5 -3.5t-51.5 -16t-32.5 -37.5t-8.5 -68v-107q0 -43 8.5 -68t32.5 -37.5t51.5 -16
t78.5 -3.5h134q32 0 43.5 14t11.5 48q0 33 26 33t26 -36q0 -23 -3 -40t-12.5 -34.5t-31 -27t-53.5 -9.5zM404 635l-96 -115q-14 -15 -25 -15q-8 0 -16.5 7.5t-8.5 17.5q0 12 9 23l96 115q13 15 25 15q9 0 17 -7.5t8 -18.5t-9 -22z" />
    <glyph glyph-name="Ccircumflex" unicode="&#x108;" 
d="M175 687l105 132h59l107 -132q6 -8 6 -18q0 -23 -23 -23q-5 0 -9.5 2t-6 3.5t-6.5 7.5t-6 7l-91 96l-90 -96q-2 -2 -5 -6t-5 -5.5t-4.5 -4t-6 -3.5t-7.5 -1q-23 0 -23 23q0 10 6 18zM436 0h-141q-116 0 -169.5 36t-53.5 144v276q0 108 53 144t164 36h147q32 0 53.5 -9.5
t31 -27t12.5 -34.5t3 -41q0 -35 -26 -35t-26 33q0 35 -12 48.5t-43 13.5h-140q-48 0 -75 -3.5t-50 -16.5t-31.5 -39t-8.5 -69v-276q0 -83 36 -105.5t135 -22.5h134q32 0 43.5 14t11.5 48q0 33 26 33t26 -36q0 -23 -3 -40t-12.5 -34.5t-31 -27t-53.5 -9.5z" />
    <glyph glyph-name="ccircumflex" unicode="&#x109;" horiz-adv-x="584" 
d="M426 0h-141q-115 0 -169 35.5t-54 140.5v109q0 105 54 140.5t169 35.5h141q32 0 53.5 -9.5t31 -27.5t12.5 -35t3 -40q0 -35 -26 -35t-26 33q0 35 -12 48.5t-43 13.5h-134q-51 0 -78.5 -3.5t-51.5 -16t-32.5 -37.5t-8.5 -68v-107q0 -43 8.5 -68t32.5 -37.5t51.5 -16
t78.5 -3.5h134q32 0 43.5 14t11.5 48q0 33 26 33t26 -36q0 -23 -3 -40t-12.5 -34.5t-31 -27t-53.5 -9.5zM153 558l105 132h59l107 -132q6 -8 6 -18q0 -23 -23 -23q-5 0 -9.5 2t-6 3.5t-6.5 7.5t-6 7l-91 96l-90 -96q-2 -2 -5 -6t-5 -5.5t-4.5 -4t-6 -3.5t-7.5 -1
q-23 0 -23 23q0 10 6 18z" />
    <glyph glyph-name="Cdotaccent" unicode="&#x10a;" 
d="M436 0h-141q-116 0 -169.5 36t-53.5 144v276q0 108 53 144t164 36h147q32 0 53.5 -9.5t31 -27t12.5 -34.5t3 -41q0 -35 -26 -35t-26 33q0 35 -12 48.5t-43 13.5h-140q-48 0 -75 -3.5t-50 -16.5t-31.5 -39t-8.5 -69v-276q0 -83 36 -105.5t135 -22.5h134q32 0 43.5 14
t11.5 48q0 33 26 33t26 -36q0 -23 -3 -40t-12.5 -34.5t-31 -27t-53.5 -9.5zM291 783q16 0 33.5 -12t17.5 -29t-17.5 -29t-33.5 -12q-17 0 -34 12t-17 29t17 29t34 12z" />
    <glyph glyph-name="cdotaccent" unicode="&#x10b;" horiz-adv-x="584" 
d="M426 0h-141q-115 0 -169 35.5t-54 140.5v109q0 105 54 140.5t169 35.5h141q32 0 53.5 -9.5t31 -27.5t12.5 -35t3 -40q0 -35 -26 -35t-26 33q0 35 -12 48.5t-43 13.5h-134q-51 0 -78.5 -3.5t-51.5 -16t-32.5 -37.5t-8.5 -68v-107q0 -43 8.5 -68t32.5 -37.5t51.5 -16
t78.5 -3.5h134q32 0 43.5 14t11.5 48q0 33 26 33t26 -36q0 -23 -3 -40t-12.5 -34.5t-31 -27t-53.5 -9.5zM285 599q16 0 33.5 -12t17.5 -29t-17.5 -29t-33.5 -12q-17 0 -34 12t-17 29t17 29t34 12z" />
    <glyph glyph-name="Ccaron" unicode="&#x10c;" 
d="M436 0h-141q-116 0 -169.5 36t-53.5 144v276q0 108 53 144t164 36h147q32 0 53.5 -9.5t31 -27t12.5 -34.5t3 -41q0 -35 -26 -35t-26 33q0 35 -12 48.5t-43 13.5h-140q-48 0 -75 -3.5t-50 -16.5t-31.5 -39t-8.5 -69v-276q0 -83 36 -105.5t135 -22.5h134q32 0 43.5 14
t11.5 48q0 33 26 33t26 -36q0 -23 -3 -40t-12.5 -34.5t-31 -27t-53.5 -9.5zM325 678h-56l-104 109q-7 7 -7 15q0 20 23 20q12 0 32 -17l84 -70l84 70q20 17 32 17q23 0 23 -20q0 -8 -7 -15z" />
    <glyph glyph-name="ccaron" unicode="&#x10d;" horiz-adv-x="584" 
d="M324 522h-56l-104 109q-7 7 -7 15q0 20 23 20q12 0 32 -17l84 -70l84 70q20 17 32 17q23 0 23 -20q0 -8 -7 -15zM426 0h-141q-115 0 -169 35.5t-54 140.5v109q0 105 54 140.5t169 35.5h141q32 0 53.5 -9.5t31 -27.5t12.5 -35t3 -40q0 -35 -26 -35t-26 33q0 35 -12 48.5
t-43 13.5h-134q-51 0 -78.5 -3.5t-51.5 -16t-32.5 -37.5t-8.5 -68v-107q0 -43 8.5 -68t32.5 -37.5t51.5 -16t78.5 -3.5h134q32 0 43.5 14t11.5 48q0 33 26 33t26 -36q0 -23 -3 -40t-12.5 -34.5t-31 -27t-53.5 -9.5z" />
    <glyph glyph-name="Dcaron" unicode="&#x10e;" horiz-adv-x="620" 
d="M548 456v-276q0 -108 -53.5 -144t-168.5 -36h-218q-24 0 -24 36v564q0 36 24 36h224q54 0 90 -6.5t66.5 -25.5t45 -55.5t14.5 -92.5zM496 180v276q0 82 -35 105t-129 23h-196v-532h190q98 0 134 22.5t36 105.5zM318 675h-56l-104 109q-7 7 -7 15q0 20 23 20q12 0 32 -17
l84 -70l84 70q20 17 32 17q23 0 23 -20q0 -8 -7 -15z" />
    <glyph glyph-name="dcaron" unicode="&#x10f;" horiz-adv-x="611" 
d="M484 461v146q0 36 28 36q24 0 24 -36v-580q0 -34 -26 -34t-26 35v35q-59 -63 -171 -63h-29q-115 0 -168.5 35.5t-53.5 140.5v109q0 105 53.5 140.5t168.5 35.5h200zM484 409h-200q-51 0 -78.5 -3.5t-51 -16t-32 -37.5t-8.5 -68v-107q0 -43 8.5 -68t32 -37.5t51 -16
t78.5 -3.5h29q171 0 171 176v181zM656 623q0 -10 -5 -19l-41 -83q-10 -24 -25 -24q-22 0 -22 25q0 4 3 16l24 87q7 23 25 23q11 0 26 -6t15 -19z" />
    <glyph glyph-name="Dcroat" unicode="&#x110;" horiz-adv-x="620" 
d="M496 180v276q0 82 -35 105t-129 23h-196v-233h104q34 0 34 -27q0 -26 -34 -26h-104v-246h190q98 0 134 22.5t36 105.5zM548 456v-276q0 -108 -53.5 -144t-168.5 -36h-218q-24 0 -24 36v262q-32 0 -32 28q0 25 32 25v249q0 36 24 36h224q54 0 90 -6.5t66.5 -25.5t45 -55.5
t14.5 -92.5z" />
    <glyph glyph-name="dcroat" unicode="&#x111;" horiz-adv-x="611" 
d="M484 409h-200q-51 0 -78.5 -3.5t-51 -16t-32 -37.5t-8.5 -68v-107q0 -43 8.5 -68t32 -37.5t51 -16t78.5 -3.5h29q171 0 171 176v181zM261 539q0 26 31 26h192v42q0 36 28 36q24 0 24 -36v-42h1q34 0 34 -28q0 -11 -9.5 -18t-24.5 -7h-1v-485q0 -34 -26 -34t-26 35v35
q-59 -63 -171 -63h-29q-115 0 -168.5 35.5t-53.5 140.5v109q0 105 53.5 140.5t168.5 35.5h200v51h-192q-31 0 -31 27z" />
    <glyph glyph-name="Emacron" unicode="&#x112;" horiz-adv-x="598" 
d="M156 733q0 26 31 26h245q34 0 34 -28q0 -11 -9.5 -18t-24.5 -7h-245q-31 0 -31 27zM136 332v-280h378q34 0 34 -28q0 -24 -34 -24h-406q-24 0 -24 36v564q0 36 24 36h406q34 0 34 -28q0 -24 -34 -24h-378v-200h259q36 0 36 -28q0 -24 -36 -24h-259z" />
    <glyph glyph-name="emacron" unicode="&#x113;" 
d="M145 549q0 26 31 26h245q34 0 34 -28q0 -11 -9.5 -18t-24.5 -7h-245q-31 0 -31 27zM536 285v-40h-422v-68q0 -43 8.5 -68t32.5 -37.5t51.5 -16t78.5 -3.5h134q32 0 43.5 14t11.5 48q0 33 26 33t26 -36q0 -23 -3 -40t-12.5 -34.5t-31 -27t-53.5 -9.5h-141
q-115 0 -169 35.5t-54 140.5v109q0 105 54 140.5t169 35.5h29q115 0 168.5 -35.5t53.5 -140.5zM314 409h-29q-97 0 -133.5 -20.5t-37.5 -91.5h370q-1 71 -37.5 91.5t-132.5 20.5z" />
    <glyph glyph-name="Edotaccent" unicode="&#x116;" horiz-adv-x="598" 
d="M311 788q16 0 33.5 -12t17.5 -29t-17.5 -29t-33.5 -12q-17 0 -34 12t-17 29t17 29t34 12zM136 332v-280h378q34 0 34 -28q0 -24 -34 -24h-406q-24 0 -24 36v564q0 36 24 36h406q34 0 34 -28q0 -24 -34 -24h-378v-200h259q36 0 36 -28q0 -24 -36 -24h-259z" />
    <glyph glyph-name="edotaccent" unicode="&#x117;" 
d="M300 604q16 0 33.5 -12t17.5 -29t-17.5 -29t-33.5 -12q-17 0 -34 12t-17 29t17 29t34 12zM536 285v-40h-422v-68q0 -43 8.5 -68t32.5 -37.5t51.5 -16t78.5 -3.5h134q32 0 43.5 14t11.5 48q0 33 26 33t26 -36q0 -23 -3 -40t-12.5 -34.5t-31 -27t-53.5 -9.5h-141
q-115 0 -169 35.5t-54 140.5v109q0 105 54 140.5t169 35.5h29q115 0 168.5 -35.5t53.5 -140.5zM314 409h-29q-97 0 -133.5 -20.5t-37.5 -91.5h370q-1 71 -37.5 91.5t-132.5 20.5z" />
    <glyph glyph-name="Eogonek" unicode="&#x118;" horiz-adv-x="597" 
d="M136 332v-280h378q34 0 34 -28q0 -24 -34 -24h-167q-24 -16 -44 -50.5t-20 -50.5q0 -54 42 -54q16 0 38 8.5t28 8.5q15 0 15 -17q0 -26 -27 -38t-52 -12q-41 0 -68.5 29t-27.5 75q0 37 48 101h-171q-24 0 -24 36v569q0 36 24 36h406q34 0 34 -28q0 -24 -34 -24h-378v-205
h259q36 0 36 -28q0 -24 -36 -24h-259z" />
    <glyph glyph-name="eogonek" unicode="&#x119;" 
d="M314 409h-29q-97 0 -133.5 -20.5t-37.5 -91.5h370q-1 71 -37.5 91.5t-132.5 20.5zM536 285v-40h-422v-68q0 -43 8.5 -68t32.5 -37.5t51.5 -16t78.5 -3.5h134q32 0 43.5 14t11.5 48q0 33 26 33t26 -36q0 -23 -3 -40t-12.5 -34.5t-31 -27t-53.5 -9.5h-49q-24 -16 -44 -50.5
t-20 -50.5q0 -54 42 -54q16 0 38 8.5t28 8.5q15 0 15 -17q0 -26 -27 -38t-52 -12q-41 0 -68.5 29t-27.5 75q0 37 48 101h-24q-115 0 -169 35.5t-54 140.5v109q0 105 54 140.5t169 35.5h29q115 0 168.5 -35.5t53.5 -140.5z" />
    <glyph glyph-name="Ecaron" unicode="&#x11a;" horiz-adv-x="598" 
d="M136 332v-280h378q34 0 34 -28q0 -24 -34 -24h-406q-24 0 -24 36v564q0 36 24 36h406q34 0 34 -28q0 -24 -34 -24h-378v-200h259q36 0 36 -28q0 -24 -36 -24h-259zM326 675h-56l-104 109q-7 7 -7 15q0 20 23 20q12 0 32 -17l84 -70l84 70q20 17 32 17q23 0 23 -20
q0 -8 -7 -15z" />
    <glyph glyph-name="ecaron" unicode="&#x11b;" 
d="M328 522h-56l-104 109q-7 7 -7 15q0 20 23 20q12 0 32 -17l84 -70l84 70q20 17 32 17q23 0 23 -20q0 -8 -7 -15zM536 285v-40h-422v-68q0 -43 8.5 -68t32.5 -37.5t51.5 -16t78.5 -3.5h134q32 0 43.5 14t11.5 48q0 33 26 33t26 -36q0 -23 -3 -40t-12.5 -34.5t-31 -27
t-53.5 -9.5h-141q-115 0 -169 35.5t-54 140.5v109q0 105 54 140.5t169 35.5h29q115 0 168.5 -35.5t53.5 -140.5zM314 409h-29q-97 0 -133.5 -20.5t-37.5 -91.5h370q-1 71 -37.5 91.5t-132.5 20.5z" />
    <glyph glyph-name="Gcircumflex" unicode="&#x11c;" horiz-adv-x="606" 
d="M484 246h-131q-36 0 -36 25q0 27 36 27h183v-189q0 -49 -19.5 -79t-80.5 -30h-147q-55 0 -91 6.5t-66.5 24.5t-45 54t-14.5 92v282q0 106 53.5 141.5t169.5 35.5h141q32 0 53.5 -9.5t31 -27t12.5 -34.5t3 -40q0 -36 -26 -36t-26 34q0 33 -11.5 47t-43.5 14h-134
q-99 0 -135 -22.5t-36 -103.5v-280q0 -81 35.5 -103.5t129.5 -22.5h140q32 0 43.5 13.5t11.5 46.5v134zM168 687l105 132h59l107 -132q6 -8 6 -18q0 -23 -23 -23q-5 0 -9.5 2t-6 3.5t-6.5 7.5t-6 7l-91 96l-90 -96q-2 -2 -5 -6t-5 -5.5t-4.5 -4t-6 -3.5t-7.5 -1
q-23 0 -23 23q0 10 6 18z" />
    <glyph glyph-name="gcircumflex" unicode="&#x11d;" horiz-adv-x="611" 
d="M536 -87q0 -65 -19 -91.5t-72 -26.5h-283q-32 0 -53.5 9.5t-31 27.5t-12.5 35t-3 40q0 35 26 35t26 -33q0 -35 12 -48.5t43 -13.5h269q29 0 37.5 10t8.5 40v103h-200q-115 0 -168.5 35.5t-53.5 140.5v109q0 105 53.5 140.5t168.5 35.5h29q112 0 171 -63v35q0 35 26 35
t26 -34v-521zM484 52v181q0 176 -171 176h-29q-51 0 -78.5 -3.5t-51 -16t-32 -37.5t-8.5 -68v-107q0 -43 8.5 -68t32 -37.5t51 -16t78.5 -3.5h200zM164 565l105 132h59l107 -132q6 -8 6 -18q0 -23 -23 -23q-5 0 -9.5 2t-6 3.5t-6.5 7.5t-6 7l-91 96l-90 -96q-2 -2 -5 -6
t-5 -5.5t-4.5 -4t-6 -3.5t-7.5 -1q-23 0 -23 23q0 10 6 18z" />
    <glyph glyph-name="Gbreve" unicode="&#x11e;" horiz-adv-x="606" 
d="M484 246h-131q-36 0 -36 25q0 27 36 27h183v-189q0 -49 -19.5 -79t-80.5 -30h-147q-55 0 -91 6.5t-66.5 24.5t-45 54t-14.5 92v282q0 106 53.5 141.5t169.5 35.5h141q32 0 53.5 -9.5t31 -27t12.5 -34.5t3 -40q0 -36 -26 -36t-26 34q0 33 -11.5 47t-43.5 14h-134
q-99 0 -135 -22.5t-36 -103.5v-280q0 -81 35.5 -103.5t129.5 -22.5h140q32 0 43.5 13.5t11.5 46.5v134zM305 688q-46 0 -83 35.5t-37 95.5h53q0 -43 20.5 -60t46.5 -17t46.5 17t20.5 60h53q0 -61 -37.5 -96t-82.5 -35z" />
    <glyph glyph-name="gbreve" unicode="&#x11f;" horiz-adv-x="611" 
d="M283 529q-46 0 -83 35.5t-37 95.5h53q0 -43 20.5 -60t46.5 -17t46.5 17t20.5 60h53q0 -61 -37.5 -96t-82.5 -35zM536 -87q0 -65 -19 -91.5t-72 -26.5h-283q-32 0 -53.5 9.5t-31 27.5t-12.5 35t-3 40q0 35 26 35t26 -33q0 -35 12 -48.5t43 -13.5h269q29 0 37.5 10t8.5 40
v103h-200q-115 0 -168.5 35.5t-53.5 140.5v109q0 105 53.5 140.5t168.5 35.5h29q112 0 171 -63v35q0 35 26 35t26 -34v-521zM484 52v181q0 176 -171 176h-29q-51 0 -78.5 -3.5t-51 -16t-32 -37.5t-8.5 -68v-107q0 -43 8.5 -68t32 -37.5t51 -16t78.5 -3.5h200z" />
    <glyph glyph-name="Gdotaccent" unicode="&#x120;" horiz-adv-x="606" 
d="M484 246h-131q-36 0 -36 25q0 27 36 27h183v-189q0 -49 -19.5 -79t-80.5 -30h-147q-55 0 -91 6.5t-66.5 24.5t-45 54t-14.5 92v282q0 106 53.5 141.5t169.5 35.5h141q32 0 53.5 -9.5t31 -27t12.5 -34.5t3 -40q0 -36 -26 -36t-26 34q0 33 -11.5 47t-43.5 14h-134
q-99 0 -135 -22.5t-36 -103.5v-280q0 -81 35.5 -103.5t129.5 -22.5h140q32 0 43.5 13.5t11.5 46.5v134zM289 783q16 0 33.5 -12t17.5 -29t-17.5 -29t-33.5 -12q-17 0 -34 12t-17 29t17 29t34 12z" />
    <glyph glyph-name="gdotaccent" unicode="&#x121;" horiz-adv-x="611" 
d="M536 -87q0 -65 -19 -91.5t-72 -26.5h-283q-32 0 -53.5 9.5t-31 27.5t-12.5 35t-3 40q0 35 26 35t26 -33q0 -35 12 -48.5t43 -13.5h269q29 0 37.5 10t8.5 40v103h-200q-115 0 -168.5 35.5t-53.5 140.5v109q0 105 53.5 140.5t168.5 35.5h29q112 0 171 -63v35q0 35 26 35
t26 -34v-521zM484 52v181q0 176 -171 176h-29q-51 0 -78.5 -3.5t-51 -16t-32 -37.5t-8.5 -68v-107q0 -43 8.5 -68t32 -37.5t51 -16t78.5 -3.5h200zM299 606q16 0 33.5 -12t17.5 -29t-17.5 -29t-33.5 -12q-17 0 -34 12t-17 29t17 29t34 12z" />
    <glyph glyph-name="Gcommaaccent" unicode="&#x122;" horiz-adv-x="606" 
d="M355 -79q0 -10 -5 -19l-41 -83q-10 -24 -25 -24q-22 0 -22 25q0 4 3 16l24 87q7 23 25 23q11 0 26 -6t15 -19zM484 246h-131q-36 0 -36 25q0 27 36 27h183v-189q0 -49 -19.5 -79t-80.5 -30h-147q-55 0 -91 6.5t-66.5 24.5t-45 54t-14.5 92v282q0 106 53.5 141.5
t169.5 35.5h141q32 0 53.5 -9.5t31 -27t12.5 -34.5t3 -40q0 -36 -26 -36t-26 34q0 33 -11.5 47t-43.5 14h-134q-99 0 -135 -22.5t-36 -103.5v-280q0 -81 35.5 -103.5t129.5 -22.5h140q32 0 43.5 13.5t11.5 46.5v134z" />
    <glyph glyph-name="gcommaaccent" unicode="&#x123;" horiz-adv-x="611" 
d="M272 554q0 10 5 19l41 83q10 24 25 24q22 0 22 -25q0 -4 -3 -16l-24 -86q-7 -24 -25 -24q-11 0 -26 6t-15 19zM536 -87q0 -65 -19 -91.5t-72 -26.5h-283q-32 0 -53.5 9.5t-31 27.5t-12.5 35t-3 40q0 35 26 35t26 -33q0 -35 12 -48.5t43 -13.5h269q29 0 37.5 10t8.5 40
v103h-200q-115 0 -168.5 35.5t-53.5 140.5v109q0 105 53.5 140.5t168.5 35.5h29q112 0 171 -63v35q0 35 26 35t26 -34v-521zM484 52v181q0 176 -171 176h-29q-51 0 -78.5 -3.5t-51 -16t-32 -37.5t-8.5 -68v-107q0 -43 8.5 -68t32 -37.5t51 -16t78.5 -3.5h200z" />
    <glyph glyph-name="Hcircumflex" unicode="&#x124;" horiz-adv-x="632" 
d="M136 27q0 -34 -26 -34t-26 34v581q0 35 24 35q28 0 28 -35v-239h360v239q0 35 25 35q27 0 27 -35v-581q0 -34 -25 -34q-27 0 -27 34v290h-360v-290zM183 687l105 132h59l107 -132q6 -8 6 -18q0 -23 -23 -23q-5 0 -9.5 2t-6 3.5t-6.5 7.5t-6 7l-91 96l-90 -96q-2 -2 -5 -6
t-5 -5.5t-4.5 -4t-6 -3.5t-7.5 -1q-23 0 -23 23q0 10 6 18z" />
    <glyph glyph-name="hcircumflex" unicode="&#x125;" horiz-adv-x="619" 
d="M298 409q-85 0 -128 -45.5t-43 -132.5v-204q0 -34 -26 -34t-26 34v580q0 36 24 36q28 0 28 -36v-209q59 63 171 63h29q115 0 168.5 -35.5t53.5 -140.5v-258q0 -34 -25 -34q-27 0 -27 34v257q0 43 -8.5 68t-32 37.5t-51 16t-78.5 3.5h-29zM177 687l105 132h59l107 -132
q6 -8 6 -18q0 -23 -23 -23q-5 0 -9.5 2t-6 3.5t-6.5 7.5t-6 7l-91 96l-90 -96q-2 -2 -5 -6t-5 -5.5t-4.5 -4t-6 -3.5t-7.5 -1q-23 0 -23 23q0 10 6 18z" />
    <glyph glyph-name="Hbar" unicode="&#x126;" horiz-adv-x="636" 
d="M54 508q-26 0 -26 22q0 21 26 21h32v57q0 35 24 35q28 0 28 -35v-57h360v57q0 35 25 35q27 0 27 -35v-57h29q29 0 29 -23q0 -20 -29 -20h-29v-481q0 -34 -25 -34q-27 0 -27 34v290h-360v-290q0 -34 -26 -34t-26 34v481h-32zM498 508h-360v-139h360v139z" />
    <glyph glyph-name="hbar" unicode="&#x127;" horiz-adv-x="619" 
d="M75 553v54q0 36 24 36q28 0 28 -36v-54h210q38 0 38 -28q0 -25 -38 -25h-210v-102q59 63 171 63h29q115 0 168.5 -35.5t53.5 -140.5v-258q0 -34 -25 -34q-27 0 -27 34v257q0 43 -8.5 68t-32 37.5t-51 16t-78.5 3.5h-29q-84 0 -127.5 -45.5t-43.5 -132.5v-204
q0 -34 -26 -34t-26 34v473q-38 0 -38 28q0 25 38 25z" />
    <glyph glyph-name="Itilde" unicode="&#x128;" horiz-adv-x="220" 
d="M164 763q3 0 8 4l31 28q13 9 22 9q10 0 18 -6t8 -17q0 -14 -14 -27l-47 -39q-8 -8 -19 -8q-2 0 -4 0.5t-3.5 0.5h-3.5l-1 1l-98 36q-2 2 -6 2q-3 0 -8 -4l-31 -28q-13 -9 -22 -9t-17 6.5t-8 17.5q0 15 14 26l46 38q7 9 19 9q2 0 7 -1t6 -1l98 -36zM136 25q0 -32 -27 -32
q-25 0 -25 32v585q0 33 26 33t26 -33v-585z" />
    <glyph glyph-name="itilde" unicode="&#x129;" horiz-adv-x="200" 
d="M154 591q3 0 8 4l31 28q13 9 22 9q10 0 18 -6t8 -17q0 -14 -14 -27l-47 -39q-8 -8 -19 -8q-2 0 -4 0.5t-3.5 0.5h-3.5l-1 1l-98 36q-2 2 -6 2q-3 0 -8 -4l-31 -28q-13 -9 -22 -9t-17 6.5t-8 17.5q0 15 14 26l46 38q7 9 19 9q2 0 7 -1t6 -1l98 -36zM99 -12q-25 0 -25 32
v420q0 33 26 33t26 -33v-420q0 -32 -27 -32z" />
    <glyph glyph-name="Imacron" unicode="&#x12a;" horiz-adv-x="220" 
d="M-45 733q0 26 31 26h245q34 0 34 -28q0 -11 -9.5 -18t-24.5 -7h-245q-31 0 -31 27zM136 25q0 -32 -27 -32q-25 0 -25 32v585q0 33 26 33t26 -33v-585z" />
    <glyph glyph-name="imacron" unicode="&#x12b;" horiz-adv-x="200" 
d="M-55 561q0 26 31 26h245q34 0 34 -28q0 -11 -9.5 -18t-24.5 -7h-245q-31 0 -31 27zM99 -12q-25 0 -25 32v420q0 33 26 33t26 -33v-420q0 -32 -27 -32z" />
    <glyph glyph-name="Iogonek" unicode="&#x12e;" horiz-adv-x="221" 
d="M78 -91q0 -54 42 -54q16 0 38 8.5t28 8.5q15 0 15 -17q0 -26 -27 -38t-52 -12q-41 0 -68.5 29t-27.5 75q0 44 59 116v585q0 33 26 33t26 -33v-585q0 -18 -11 -28q-20 -17 -34 -46t-14 -42z" />
    <glyph glyph-name="iogonek" unicode="&#x12f;" horiz-adv-x="201" 
d="M101 642q16 0 33.5 -12t17.5 -29t-17.5 -29t-33.5 -12q-17 0 -34 12t-17 29t17 29t34 12zM62 -101q0 -54 42 -54q16 0 38 8.5t28 8.5q15 0 15 -17q0 -26 -27 -38t-52 -12q-41 0 -68.5 29t-27.5 75q0 23 20 58.5t45 64.5v418q0 33 26 33t26 -33v-420q0 -19 -7 -24
q-22 -17 -40 -50t-18 -47z" />
    <glyph glyph-name="Idotaccent" unicode="&#x130;" horiz-adv-x="220" 
d="M136 25q0 -32 -27 -32q-25 0 -25 32v585q0 33 26 33t26 -33v-585zM105 783q16 0 33.5 -12t17.5 -29t-17.5 -29t-33.5 -12q-17 0 -34 12t-17 29t17 29t34 12z" />
    <glyph glyph-name="dotlessi" unicode="&#x131;" horiz-adv-x="200" 
d="M99 -12q-25 0 -25 32v420q0 33 26 33t26 -33v-420q0 -32 -27 -32z" />
    <glyph glyph-name="Jcircumflex" unicode="&#x134;" horiz-adv-x="550" 
d="M251 44q95 0 130.5 22.5t35.5 103.5v441q0 32 26 32t26 -33v-441q0 -56 -14.5 -92t-45 -54t-67 -24.5t-91.5 -6.5t-91.5 6.5t-67.5 25t-45.5 55t-14.5 93.5q0 33 28 33q25 0 25 -33q0 -83 35 -105.5t131 -22.5zM293 688l105 132h59l107 -132q6 -8 6 -18q0 -23 -23 -23
q-5 0 -9.5 2t-6 3.5t-6.5 7.5t-6 7l-91 96l-90 -96q-2 -2 -5 -6t-5 -5.5t-4.5 -4t-6 -3.5t-7.5 -1q-23 0 -23 23q0 10 6 18z" />
    <glyph glyph-name="jcircumflex" unicode="&#x135;" horiz-adv-x="202" 
d="M127 0q0 -56 -14.5 -91.5t-45 -53.5t-65.5 -24t-88 -6q-36 0 -36 27q0 25 36 25q92 0 126.5 22t34.5 101v432q0 36 27 36q25 0 25 -36v-432zM-37 565l105 132h59l107 -132q6 -8 6 -18q0 -23 -23 -23q-5 0 -9.5 2t-6 3.5t-6.5 7.5t-6 7l-91 96l-90 -96q-2 -2 -5 -6
t-5 -5.5t-4.5 -4t-6 -3.5t-7.5 -1q-23 0 -23 23q0 10 6 18z" />
    <glyph glyph-name="Kcommaaccent" unicode="&#x136;" horiz-adv-x="518" 
d="M345 -25q0 -10 -5 -19l-41 -83q-10 -24 -25 -24q-22 0 -22 25q0 4 3 16l24 87q7 23 25 23q11 0 26 -6t15 -19zM514 18q0 -10 -9 -17.5t-17 -7.5q-13 0 -25 15l-274 314l-53 -64v-233q0 -32 -27 -32q-25 0 -25 32v585q0 33 26 33t26 -33v-280l261 298q11 15 25 15
q8 0 16.5 -7t8.5 -17q0 -11 -10 -24l-213 -239l279 -315q11 -13 11 -23z" />
    <glyph glyph-name="kcommaaccent" unicode="&#x137;" horiz-adv-x="454" 
d="M286 -25q0 -10 -5 -19l-41 -83q-10 -24 -25 -24q-22 0 -22 25q0 4 3 16l24 87q7 23 25 23q11 0 26 -6t15 -19zM442 19q0 -9 -7 -17t-17 -8q-11 0 -25 12l-237 229l-29 -29v-181q0 -32 -27 -32q-25 0 -25 31v586q0 33 26 33t26 -33v-341l194 185q13 12 24 12q9 0 17 -7.5
t8 -18.5t-12 -23l-166 -152l239 -222q11 -13 11 -24z" />
    <glyph glyph-name="kgreenlandic" unicode="&#x138;" horiz-adv-x="459" 
d="M428 19q0 -9 -7 -17.5t-17 -8.5q-12 0 -23 9l-255 205v-183q0 -31 -27 -31q-25 0 -25 31v412q0 32 26 32t26 -32v-179l254 204q12 10 24 10q10 0 17 -9t7 -17q0 -14 -15 -24l-240 -189l241 -190q14 -10 14 -23z" />
    <glyph glyph-name="Lacute" unicode="&#x139;" horiz-adv-x="516" 
d="M108 0q-24 0 -24 35v576q0 32 26 32t26 -32v-559h323q33 0 33 -27q0 -25 -33 -25h-351zM199 770l-70 -69q-12 -13 -24 -13q-10 0 -18 7.5t-8 16.5q0 11 13 26l69 68q12 13 25 13q11 0 18 -8.5t7 -16.5q0 -10 -12 -24z" />
    <glyph glyph-name="lacute" unicode="&#x13a;" horiz-adv-x="271" 
d="M197 0h-7q-58 0 -79 28.5t-21 98.5v481q0 35 26 35t26 -35v-498q0 -32 11.5 -45t43.5 -13q35 0 35 -27q0 -25 -35 -25zM205 781l-70 -69q-12 -13 -24 -13q-10 0 -18 7.5t-8 16.5q0 11 13 26l69 68q12 13 25 13q11 0 18 -8.5t7 -16.5q0 -10 -12 -24z" />
    <glyph glyph-name="Lcommaaccent" unicode="&#x13b;" horiz-adv-x="516" 
d="M330 -79q0 -10 -5 -19l-41 -83q-10 -24 -25 -24q-22 0 -22 25q0 4 3 16l24 87q7 23 25 23q11 0 26 -6t15 -19zM108 0q-24 0 -24 35v576q0 32 26 32t26 -32v-559h323q33 0 33 -27q0 -25 -33 -25h-351z" />
    <glyph glyph-name="lcommaaccent" unicode="&#x13c;" horiz-adv-x="271" 
d="M186 -79q0 -10 -5 -19l-41 -83q-10 -24 -25 -24q-22 0 -22 25q0 4 3 16l24 87q7 23 25 23q11 0 26 -6t15 -19zM197 0h-7q-58 0 -79 28.5t-21 98.5v481q0 35 26 35t26 -35v-498q0 -32 11.5 -45t43.5 -13q35 0 35 -27q0 -25 -35 -25z" />
    <glyph glyph-name="Lcaron" unicode="&#x13d;" horiz-adv-x="516" 
d="M108 0q-24 0 -24 35v576q0 32 26 32t26 -32v-559h323q33 0 33 -27q0 -25 -33 -25h-351zM277 625q0 -10 -5 -19l-41 -83q-10 -24 -25 -24q-22 0 -22 25q0 4 3 16l24 87q7 23 25 23q11 0 26 -6t15 -19z" />
    <glyph glyph-name="lcaron" unicode="&#x13e;" horiz-adv-x="271" 
d="M197 0h-7q-58 0 -79 28.5t-21 98.5v481q0 35 26 35t26 -35v-498q0 -32 11.5 -45t43.5 -13q35 0 35 -27q0 -25 -35 -25zM290 623q0 -10 -5 -19l-41 -83q-10 -24 -25 -24q-22 0 -22 25q0 4 3 16l24 87q7 23 25 23q11 0 26 -6t15 -19z" />
    <glyph glyph-name="Lslash" unicode="&#x141;" horiz-adv-x="525" 
d="M117 0q-24 0 -24 35v272l-53 -26q-8 -3 -15 -3q-14 0 -20 9t-6 19q0 13 22 24l72 36v245q0 32 26 32t26 -32v-219l46 23q15 3 17 3q12 0 19.5 -7.5t7.5 -18.5q0 -14 -25 -27l-65 -32v-281h323q33 0 33 -27q0 -25 -33 -25h-351z" />
    <glyph glyph-name="lslash" unicode="&#x142;" horiz-adv-x="317" 
d="M237 0h-7q-58 0 -79 28.5t-21 98.5v182l-56 -28q-8 -3 -15 -3q-14 0 -20 9t-6 19q0 13 22 24l75 38v240q0 35 26 35t26 -35v-214l43 21q15 3 17 3q12 0 19.5 -7.5t7.5 -18.5q0 -14 -25 -27l-62 -31v-224q0 -32 11.5 -45t43.5 -13q35 0 35 -27q0 -25 -35 -25z" />
    <glyph glyph-name="Nacute" unicode="&#x143;" horiz-adv-x="632" 
d="M523 -7q-14 0 -20 7l-367 543v-517q0 -33 -26 -33t-26 34v581q0 35 24 35q18 0 30 -19l358 -528v511q0 36 25 36q27 0 27 -35v-581q0 -34 -25 -34zM397 761l-96 -115q-13 -15 -25 -15q-8 0 -16.5 7.5t-8.5 17.5q0 12 9 23l96 115q14 15 25 15q9 0 17 -7.5t8 -18.5t-9 -22
z" />
    <glyph glyph-name="nacute" unicode="&#x144;" horiz-adv-x="618" 
d="M297 409q-85 0 -128 -45.5t-43 -132.5v-204q0 -34 -26 -34t-26 34v406q0 35 24 35q28 0 28 -36v-34q59 63 171 63h29q115 0 168.5 -35.5t53.5 -140.5v-258q0 -34 -25 -34q-27 0 -27 34v257q0 43 -8.5 68t-32 37.5t-51 16t-78.5 3.5h-29zM396 635l-96 -115
q-14 -15 -25 -15q-8 0 -16.5 7.5t-8.5 17.5q0 12 9 23l96 115q13 15 25 15q9 0 17 -7.5t8 -18.5t-9 -22z" />
    <glyph glyph-name="Ncommaaccent" unicode="&#x145;" horiz-adv-x="632" 
d="M363 -25q0 -10 -5 -19l-41 -83q-10 -24 -25 -24q-22 0 -22 25q0 4 3 16l24 87q7 23 25 23q11 0 26 -6t15 -19zM523 -7q-14 0 -20 7l-367 543v-517q0 -33 -26 -33t-26 34v581q0 35 24 35q18 0 30 -19l358 -528v511q0 36 25 36q27 0 27 -35v-581q0 -34 -25 -34z" />
    <glyph glyph-name="ncommaaccent" unicode="&#x146;" horiz-adv-x="617" 
d="M358 -25q0 -10 -5 -19l-41 -83q-10 -24 -25 -24q-22 0 -22 25q0 4 3 16l24 87q7 23 25 23q11 0 26 -6t15 -19zM297 409q-85 0 -128 -45.5t-43 -132.5v-204q0 -34 -26 -34t-26 34v406q0 35 24 35q28 0 28 -36v-34q59 63 171 63h29q115 0 168.5 -35.5t53.5 -140.5v-258
q0 -34 -25 -34q-27 0 -27 34v257q0 43 -8.5 68t-32 37.5t-51 16t-78.5 3.5h-29z" />
    <glyph glyph-name="Ncaron" unicode="&#x147;" horiz-adv-x="632" 
d="M523 -7q-14 0 -20 7l-367 543v-517q0 -33 -26 -33t-26 34v581q0 35 24 35q18 0 30 -19l358 -528v511q0 36 25 36q27 0 27 -35v-581q0 -34 -25 -34zM337 648h-56l-104 109q-7 7 -7 15q0 20 23 20q12 0 32 -17l84 -70l84 70q20 17 32 17q23 0 23 -20q0 -8 -7 -15z" />
    <glyph glyph-name="ncaron" unicode="&#x148;" horiz-adv-x="618" 
d="M339 529h-56l-104 109q-7 7 -7 15q0 20 23 20q12 0 32 -17l84 -70l84 70q20 17 32 17q23 0 23 -20q0 -8 -7 -15zM297 409q-85 0 -128 -45.5t-43 -132.5v-204q0 -34 -26 -34t-26 34v406q0 35 24 35q28 0 28 -36v-34q59 63 171 63h29q115 0 168.5 -35.5t53.5 -140.5v-258
q0 -34 -25 -34q-27 0 -27 34v257q0 43 -8.5 68t-32 37.5t-51 16t-78.5 3.5h-29z" />
    <glyph glyph-name="Eng" unicode="&#x14a;" horiz-adv-x="633" 
d="M496 96v511q0 36 25 36q27 0 27 -35v-608q0 -56 -14.5 -91.5t-45 -53.5t-65.5 -24t-88 -6q-36 0 -36 27q0 25 36 25q92 0 126.5 22t34.5 101v10l-360 533v-517q0 -33 -26 -33t-26 34v581q0 35 24 35q18 0 30 -19z" />
    <glyph glyph-name="eng" unicode="&#x14b;" horiz-adv-x="619" 
d="M297 409q-85 0 -128 -45.5t-43 -132.5v-204q0 -34 -26 -34t-26 34v406q0 35 24 35q28 0 28 -36v-34q59 63 171 63h29q115 0 168.5 -35.5t53.5 -140.5v-285q0 -56 -14.5 -91.5t-45 -53.5t-65.5 -24t-88 -6q-36 0 -36 27q0 25 36 25q92 0 126.5 22t34.5 101v284
q0 43 -8.5 68t-32 37.5t-51 16t-78.5 3.5h-29z" />
    <glyph glyph-name="Omacron" unicode="&#x14c;" horiz-adv-x="594" 
d="M142 733q0 26 31 26h245q34 0 34 -28q0 -11 -9.5 -18t-24.5 -7h-245q-31 0 -31 27zM297 -9q-102 0 -167 63t-65 174v180q0 111 65 174t167 63t167 -63.5t65 -173.5v-180q0 -110 -65 -173.5t-167 -63.5zM297 593q-86 0 -133 -49t-47 -137v-178q0 -88 47 -137t133 -49
t133 49t47 137v178q0 88 -47 137t-133 49z" />
    <glyph glyph-name="omacron" unicode="&#x14d;" horiz-adv-x="598" 
d="M145 549q0 26 31 26h245q34 0 34 -28q0 -11 -9.5 -18t-24.5 -7h-245q-31 0 -31 27zM314 0h-29q-115 0 -169 35.5t-54 140.5v109q0 105 54 140.5t169 35.5h29q115 0 168.5 -35.5t53.5 -140.5v-109q0 -105 -53.5 -140.5t-168.5 -35.5zM285 52h29q51 0 78.5 3.5t51 16
t32 37.5t8.5 68v107q0 43 -8.5 68t-32 37.5t-51 16t-78.5 3.5h-29q-51 0 -78.5 -3.5t-51.5 -16t-32.5 -37.5t-8.5 -68v-107q0 -43 8.5 -68t32.5 -37.5t51.5 -16t78.5 -3.5z" />
    <glyph glyph-name="Ohungarumlaut" unicode="&#x150;" horiz-adv-x="594" 
d="M297 -9q-102 0 -167 63t-65 174v180q0 111 65 174t167 63t167 -63.5t65 -173.5v-180q0 -110 -65 -173.5t-167 -63.5zM297 593q-86 0 -133 -49t-47 -137v-178q0 -88 47 -137t133 -49t133 49t47 137v178q0 88 -47 137t-133 49zM338 770l-70 -69q-12 -13 -24 -13
q-10 0 -18 7.5t-8 16.5q0 11 13 26l69 68q12 13 25 13q11 0 18 -8.5t7 -16.5q0 -10 -12 -24zM438 770l-70 -69q-12 -13 -24 -13q-10 0 -18 7.5t-8 16.5q0 11 13 26l69 68q12 13 25 13q11 0 18 -8.5t7 -16.5q0 -10 -12 -24z" />
    <glyph glyph-name="ohungarumlaut" unicode="&#x151;" horiz-adv-x="598" 
d="M314 0h-29q-115 0 -169 35.5t-54 140.5v109q0 105 54 140.5t169 35.5h29q115 0 168.5 -35.5t53.5 -140.5v-109q0 -105 -53.5 -140.5t-168.5 -35.5zM285 52h29q51 0 78.5 3.5t51 16t32 37.5t8.5 68v107q0 43 -8.5 68t-32 37.5t-51 16t-78.5 3.5h-29q-51 0 -78.5 -3.5
t-51.5 -16t-32.5 -37.5t-8.5 -68v-107q0 -43 8.5 -68t32.5 -37.5t51.5 -16t78.5 -3.5zM345 647l-96 -115q-13 -15 -25 -15q-8 0 -16.5 7.5t-8.5 17.5q0 12 9 23l96 115q14 15 25 15q9 0 17 -7.5t8 -18.5t-9 -22zM465 647l-96 -115q-13 -15 -25 -15q-8 0 -16.5 7.5t-8.5 17.5
q0 12 9 23l96 115q14 15 25 15q9 0 17 -7.5t8 -18.5t-9 -22z" />
    <glyph glyph-name="OE" unicode="&#x152;" horiz-adv-x="726" 
d="M382 620q4 16 22 16h243q35 0 35 -24q0 -27 -35 -27h-214v-201h95q36 0 36 -28q0 -24 -36 -24h-95v-280h214q35 0 35 -28q0 -24 -35 -24h-239q-20 0 -24 15q-46 -24 -108 -24q-77 0 -144.5 65.5t-67.5 171.5v180q0 106 67 171.5t143 65.5q62 0 108 -25zM276 43
q68 0 105 33v484q-36 33 -107 33q-60 0 -109.5 -51.5t-49.5 -134.5v-178q0 -83 50 -134.5t111 -51.5z" />
    <glyph glyph-name="oe" unicode="&#x153;" horiz-adv-x="747" 
d="M524 409q-59 0 -85.5 -21t-27.5 -91h224q-1 70 -27 91t-84 21zM234 409q-75 0 -97.5 -29t-22.5 -96v-107q0 -67 22.5 -96t97.5 -29q77 0 101 29.5t24 95.5v107q0 66 -24 95.5t-101 29.5zM234 0q-94 0 -133 42t-39 134v109q0 91 39 133.5t133 42.5q106 0 150 -65
q39 65 140 65q36 0 62.5 -7t51 -24.5t37 -54t12.5 -90.5v-40h-276v-68q0 -41 12 -68t34.5 -38.5t41.5 -15t44 -3.5q92 0 92 62q0 33 25 33q27 0 27 -36q0 -29 -9 -50t-22.5 -32.5t-34 -18t-38 -8.5t-40.5 -2q-118 0 -157 68q-21 -35 -56 -51.5t-96 -16.5z" />
    <glyph glyph-name="Racute" unicode="&#x154;" horiz-adv-x="569" 
d="M288 374q93 0 129.5 20t36.5 82q0 64 -37 83.5t-129 19.5h-152v-205h152zM389 332q33 -32 64 -107t46 -132t15 -68q0 -14 -7.5 -23t-19.5 -9t-18.5 9.5t-6.5 22.5t-14 66t-48 126t-76 105h-188v-297q0 -32 -27 -32q-25 0 -25 32v575q0 36 24 36h180q109 0 163.5 -33
t54.5 -122q0 -125 -117 -149zM323 770l-70 -69q-12 -13 -24 -13q-10 0 -18 7.5t-8 16.5q0 11 13 26l69 68q12 13 25 13q11 0 18 -8.5t7 -16.5q0 -10 -12 -24z" />
    <glyph glyph-name="racute" unicode="&#x155;" horiz-adv-x="383" 
d="M287 409q-78 0 -119.5 -46t-41.5 -132v-204q0 -34 -26 -34t-26 34v406q0 35 24 35q28 0 28 -36v-34q59 63 161 63h46q35 0 35 -26t-35 -26h-46zM299 635l-96 -115q-13 -15 -25 -15q-8 0 -16.5 7.5t-8.5 17.5q0 12 9 23l96 115q14 15 25 15q9 0 17 -7.5t8 -18.5t-9 -22z
" />
    <glyph glyph-name="Rcommaaccent" unicode="&#x156;" horiz-adv-x="569" 
d="M345 -25q0 -10 -5 -19l-41 -83q-10 -24 -25 -24q-22 0 -22 25q0 4 3 16l24 87q7 23 25 23q11 0 26 -6t15 -19zM288 374q93 0 129.5 20t36.5 82q0 64 -37 83.5t-129 19.5h-152v-205h152zM389 332q33 -32 64 -107t46 -132t15 -68q0 -14 -7.5 -23t-19.5 -9t-18.5 9.5
t-6.5 22.5t-14 66t-48 126t-76 105h-188v-297q0 -32 -27 -32q-25 0 -25 32v575q0 36 24 36h180q109 0 163.5 -33t54.5 -122q0 -125 -117 -149z" />
    <glyph glyph-name="rcommaaccent" unicode="&#x157;" horiz-adv-x="383" 
d="M147 -79q0 -10 -5 -19l-41 -83q-10 -24 -25 -24q-22 0 -22 25q0 4 3 16l24 87q7 23 25 23q11 0 26 -6t15 -19zM287 409q-78 0 -119.5 -46t-41.5 -132v-204q0 -34 -26 -34t-26 34v406q0 35 24 35q28 0 28 -36v-34q59 63 161 63h46q35 0 35 -26t-35 -26h-46z" />
    <glyph glyph-name="Rcaron" unicode="&#x158;" horiz-adv-x="569" 
d="M288 374q93 0 129.5 20t36.5 82q0 64 -37 83.5t-129 19.5h-152v-205h152zM389 332q33 -32 64 -107t46 -132t15 -68q0 -14 -7.5 -23t-19.5 -9t-18.5 9.5t-6.5 22.5t-14 66t-48 126t-76 105h-188v-297q0 -32 -27 -32q-25 0 -25 32v575q0 36 24 36h180q109 0 163.5 -33
t54.5 -122q0 -125 -117 -149zM298 675h-56l-104 109q-7 7 -7 15q0 20 23 20q12 0 32 -17l84 -70l84 70q20 17 32 17q23 0 23 -20q0 -8 -7 -15z" />
    <glyph glyph-name="rcaron" unicode="&#x159;" horiz-adv-x="383" 
d="M249 529h-56l-104 109q-7 7 -7 15q0 20 23 20q12 0 32 -17l84 -70l84 70q20 17 32 17q23 0 23 -20q0 -8 -7 -15zM287 409q-78 0 -119.5 -46t-41.5 -132v-204q0 -34 -26 -34t-26 34v406q0 35 24 35q28 0 28 -36v-34q59 63 161 63h46q35 0 35 -26t-35 -26h-46z" />
    <glyph glyph-name="Sacute" unicode="&#x15a;" horiz-adv-x="599" 
d="M113 481q0 -40 17.5 -68.5t42.5 -33.5l237 -51q67 -15 97 -62t30 -110q0 -67 -39.5 -115.5t-130.5 -48.5h-83q-57 0 -94 6.5t-68.5 25t-46 55t-14.5 93.5q0 33 28 33q25 0 25 -33q0 -83 35.5 -105.5t134.5 -22.5h102q53 0 76 36t23 77q0 49 -19.5 79.5t-40.5 35.5
l-235 52q-70 15 -99.5 52.5t-29.5 105.5q0 67 41 114.5t136 47.5h76q57 0 93.5 -6.5t68.5 -24.5t46.5 -54t14.5 -93q0 -33 -27 -33q-26 0 -26 33q0 83 -35 104.5t-135 21.5h-98q-54 0 -78.5 -35t-24.5 -76zM355 770l-70 -69q-12 -13 -24 -13q-10 0 -18 7.5t-8 16.5
q0 11 13 26l69 68q12 13 25 13q11 0 18 -8.5t7 -16.5q0 -10 -12 -24z" />
    <glyph glyph-name="sacute" unicode="&#x15b;" horiz-adv-x="586" 
d="M160 0q-32 0 -53.5 9.5t-31 27t-12.5 34.5t-3 40q0 36 26 36t26 -33q0 -34 11.5 -48t43.5 -14h248q59 0 59 74q0 37 -16.5 60.5t-42.5 23.5h-226q-129 0 -129 130q0 60 31 90.5t108 30.5h225q32 0 53.5 -9.5t31 -27.5t12.5 -35t3 -40q0 -35 -26 -35t-26 33q0 35 -12 48.5
t-43 13.5h-246q-59 0 -59 -69q0 -38 16.5 -58t42.5 -20h227q70 0 99 -39t29 -97q0 -62 -31.5 -94t-106.5 -32h-228zM402 635l-96 -115q-14 -15 -25 -15q-8 0 -16.5 7.5t-8.5 17.5q0 12 9 23l96 115q13 15 25 15q9 0 17 -7.5t8 -18.5t-9 -22z" />
    <glyph glyph-name="Scircumflex" unicode="&#x15c;" horiz-adv-x="599" 
d="M113 481q0 -40 17.5 -68.5t42.5 -33.5l237 -51q67 -15 97 -62t30 -110q0 -67 -39.5 -115.5t-130.5 -48.5h-83q-57 0 -94 6.5t-68.5 25t-46 55t-14.5 93.5q0 33 28 33q25 0 25 -33q0 -83 35.5 -105.5t134.5 -22.5h102q53 0 76 36t23 77q0 49 -19.5 79.5t-40.5 35.5
l-235 52q-70 15 -99.5 52.5t-29.5 105.5q0 67 41 114.5t136 47.5h76q57 0 93.5 -6.5t68.5 -24.5t46.5 -54t14.5 -93q0 -33 -27 -33q-26 0 -26 33q0 83 -35 104.5t-135 21.5h-98q-54 0 -78.5 -35t-24.5 -76zM162 687l105 132h59l107 -132q6 -8 6 -18q0 -23 -23 -23
q-5 0 -9.5 2t-6 3.5t-6.5 7.5t-6 7l-91 96l-90 -96q-2 -2 -5 -6t-5 -5.5t-4.5 -4t-6 -3.5t-7.5 -1q-23 0 -23 23q0 10 6 18z" />
    <glyph glyph-name="scircumflex" unicode="&#x15d;" horiz-adv-x="586" 
d="M160 0q-32 0 -53.5 9.5t-31 27t-12.5 34.5t-3 40q0 36 26 36t26 -33q0 -34 11.5 -48t43.5 -14h248q59 0 59 74q0 37 -16.5 60.5t-42.5 23.5h-226q-129 0 -129 130q0 60 31 90.5t108 30.5h225q32 0 53.5 -9.5t31 -27.5t12.5 -35t3 -40q0 -35 -26 -35t-26 33q0 35 -12 48.5
t-43 13.5h-246q-59 0 -59 -69q0 -38 16.5 -58t42.5 -20h227q70 0 99 -39t29 -97q0 -62 -31.5 -94t-106.5 -32h-228zM161 558l105 132h59l107 -132q6 -8 6 -18q0 -23 -23 -23q-5 0 -9.5 2t-6 3.5t-6.5 7.5t-6 7l-91 96l-90 -96q-2 -2 -5 -6t-5 -5.5t-4.5 -4t-6 -3.5t-7.5 -1
q-23 0 -23 23q0 10 6 18z" />
    <glyph glyph-name="Scedilla" unicode="&#x15e;" horiz-adv-x="599" 
d="M113 481q0 -40 17.5 -68.5t42.5 -33.5l237 -51q67 -15 97 -62t30 -110q0 -67 -39.5 -115.5t-130.5 -48.5h-62q4 -10 34.5 -33.5t30.5 -52.5q0 -36 -28 -58.5t-68 -22.5q-25 0 -52 12t-27 38q0 18 15 18q6 0 29 -9t37 -9q42 0 42 26q0 11 -14.5 23t-31.5 29t-21 40
q-97 3 -143.5 41t-46.5 138q0 33 28 33q25 0 25 -33q0 -83 35.5 -105.5t134.5 -22.5h102q53 0 76 36t23 77q0 49 -19.5 79.5t-40.5 35.5l-235 52q-70 15 -99.5 52.5t-29.5 105.5q0 67 41 114.5t136 47.5h76q57 0 93.5 -6.5t68.5 -24.5t46.5 -54t14.5 -93q0 -33 -27 -33
q-26 0 -26 33q0 83 -35 104.5t-135 21.5h-98q-54 0 -78.5 -35t-24.5 -76z" />
    <glyph glyph-name="scedilla" unicode="&#x15f;" horiz-adv-x="586" 
d="M160 0q-32 0 -53.5 9.5t-31 27t-12.5 34.5t-3 40q0 36 26 36t26 -33q0 -34 11.5 -48t43.5 -14h248q59 0 59 74q0 37 -16.5 60.5t-42.5 23.5h-226q-129 0 -129 130q0 60 31 90.5t108 30.5h225q32 0 53.5 -9.5t31 -27.5t12.5 -35t3 -40q0 -35 -26 -35t-26 33q0 35 -12 48.5
t-43 13.5h-246q-59 0 -59 -69q0 -38 16.5 -58t42.5 -20h227q70 0 99 -39t29 -97q0 -62 -31.5 -94t-106.5 -32h-93q3 -13 14.5 -23.5t23 -17t21 -20.5t9.5 -33q0 -36 -28 -58.5t-68 -22.5q-25 0 -52 12t-27 38q0 18 15 18q6 0 29 -9t37 -9q42 0 42 26q0 11 -16 23.5t-33 31
t-20 44.5h-82z" />
    <glyph glyph-name="Scaron" unicode="&#x160;" horiz-adv-x="599" 
d="M113 481q0 -40 17.5 -68.5t42.5 -33.5l237 -51q67 -15 97 -62t30 -110q0 -67 -39.5 -115.5t-130.5 -48.5h-83q-57 0 -94 6.5t-68.5 25t-46 55t-14.5 93.5q0 33 28 33q25 0 25 -33q0 -83 35.5 -105.5t134.5 -22.5h102q53 0 76 36t23 77q0 49 -19.5 79.5t-40.5 35.5
l-235 52q-70 15 -99.5 52.5t-29.5 105.5q0 67 41 114.5t136 47.5h76q57 0 93.5 -6.5t68.5 -24.5t46.5 -54t14.5 -93q0 -33 -27 -33q-26 0 -26 33q0 83 -35 104.5t-135 21.5h-98q-54 0 -78.5 -35t-24.5 -76zM324 675h-56l-104 109q-7 7 -7 15q0 20 23 20q12 0 32 -17l84 -70
l84 70q20 17 32 17q23 0 23 -20q0 -8 -7 -15z" />
    <glyph glyph-name="scaron" unicode="&#x161;" horiz-adv-x="586" 
d="M314 522h-56l-104 109q-7 7 -7 15q0 20 23 20q12 0 32 -17l84 -70l84 70q20 17 32 17q23 0 23 -20q0 -8 -7 -15zM160 0q-32 0 -53.5 9.5t-31 27t-12.5 34.5t-3 40q0 36 26 36t26 -33q0 -34 11.5 -48t43.5 -14h248q59 0 59 74q0 37 -16.5 60.5t-42.5 23.5h-226
q-129 0 -129 130q0 60 31 90.5t108 30.5h225q32 0 53.5 -9.5t31 -27.5t12.5 -35t3 -40q0 -35 -26 -35t-26 33q0 35 -12 48.5t-43 13.5h-246q-59 0 -59 -69q0 -38 16.5 -58t42.5 -20h227q70 0 99 -39t29 -97q0 -62 -31.5 -94t-106.5 -32h-228z" />
    <glyph glyph-name="Tcommaaccent" unicode="&#x162;" horiz-adv-x="481" 
d="M269 10q0 -16 10.5 -28.5t22.5 -19.5t22.5 -21.5t10.5 -34.5q0 -36 -28 -58.5t-68 -22.5q-25 0 -52 12t-27 38q0 18 15 18q6 0 29 -9t37 -9q42 0 42 26q0 10 -11 20.5t-23.5 19.5t-23.5 27t-11 42v574h-154q-33 0 -33 26t33 26h361q33 0 33 -27q0 -25 -33 -25h-152v-574z
" />
    <glyph glyph-name="tcommaaccent" unicode="&#x163;" horiz-adv-x="343" 
d="M129 177q0 -81 34.5 -103t126.5 -22q35 0 35 -24q0 -28 -35 -28q-32 0 -59 3q3 -16 20 -29t32.5 -28.5t15.5 -39.5q0 -36 -28 -58.5t-68 -22.5q-25 0 -52 12t-27 38q0 18 15 18q6 0 29 -9t37 -9q42 0 42 26q0 10 -11 20.5t-23.5 19.5t-23.5 27t-11 42v2q-101 30 -101 164
v234q-31 2 -31 27q0 22 31 24v104q0 36 24 36q28 0 28 -36v-104h138q36 0 36 -28q0 -24 -36 -24h-138v-232z" />
    <glyph glyph-name="Tcaron" unicode="&#x164;" horiz-adv-x="481" 
d="M421 636q33 0 33 -27q0 -25 -33 -25h-152v-559q0 -32 -29 -32q-26 0 -26 32v559h-154q-33 0 -33 26t33 26h361zM269 678h-56l-104 109q-7 7 -7 15q0 20 23 20q12 0 32 -17l84 -70l84 70q20 17 32 17q23 0 23 -20q0 -8 -7 -15z" />
    <glyph glyph-name="tcaron" unicode="&#x165;" horiz-adv-x="344" 
d="M130 177q0 -81 34.5 -103t126.5 -22q35 0 35 -24q0 -28 -35 -28q-108 0 -160.5 36t-52.5 140v234q-31 2 -31 27q0 22 31 24v104q0 36 24 36q28 0 28 -36v-104h138q36 0 36 -28q0 -24 -36 -24h-138v-232zM270 611q0 -10 -5 -19l-41 -83q-10 -24 -25 -24q-22 0 -22 25
q0 4 3 16l24 87q7 23 25 23q11 0 26 -6t15 -19z" />
    <glyph glyph-name="Tbar" unicode="&#x166;" horiz-adv-x="481" 
d="M421 636q33 0 33 -27q0 -25 -33 -25h-152v-218h92q34 0 34 -28q0 -11 -9.5 -18t-24.5 -7h-92v-288q0 -32 -29 -32q-26 0 -26 32v288h-98q-31 0 -31 27q0 26 31 26h98v218h-154q-33 0 -33 26t33 26h361z" />
    <glyph glyph-name="tbar" unicode="&#x167;" horiz-adv-x="349" 
d="M130 177q0 -81 34.5 -103t126.5 -22q35 0 35 -24q0 -28 -35 -28q-108 0 -160.5 36t-52.5 140v94q-31 0 -31 27q0 26 31 26v87q-31 2 -31 27q0 22 31 24v104q0 36 24 36q28 0 28 -36v-104h138q36 0 36 -28q0 -24 -36 -24h-138v-86h162q34 0 34 -28q0 -11 -9.5 -18
t-24.5 -7h-162v-93z" />
    <glyph glyph-name="Utilde" unicode="&#x168;" horiz-adv-x="620" 
d="M365 763q3 0 8 4l31 28q13 9 22 9q10 0 18 -6t8 -17q0 -14 -14 -27l-47 -39q-8 -8 -19 -8q-2 0 -4 0.5t-3.5 0.5h-2.5l-2 1l-98 36q-2 2 -6 2q-3 0 -8 -4l-31 -28q-13 -9 -22 -9t-17 6.5t-8 17.5q0 15 14 26l46 38q8 9 19 9q2 0 7 -1t6 -1l98 -36zM490 611q0 32 27 32
q25 0 25 -33v-382q0 -110 -65 -173.5t-167 -63.5t-167 63t-65 174v382q0 33 26 33t26 -32v-382q0 -88 47 -137t133 -49t133 49t47 137v382z" />
    <glyph glyph-name="utilde" unicode="&#x169;" horiz-adv-x="618" 
d="M360 586q3 0 8 4l31 28q13 9 22 9q10 0 18 -6t8 -17q0 -14 -14 -27l-47 -39q-8 -8 -19 -8q-2 0 -4 0.5t-3.5 0.5t-3.5 1h-1l-98 36q-2 2 -6 2q-3 0 -8 -4l-31 -28q-13 -9 -22 -9t-17 6.5t-8 17.5q0 15 14 26l46 38q7 9 19 9q2 0 7 -1t6 -1l98 -36zM321 52q85 0 128 45.5
t43 132.5v204q0 34 26 34t26 -34v-406q0 -35 -24 -35q-28 0 -28 36v34q-59 -63 -171 -63h-29q-115 0 -168.5 35.5t-53.5 140.5v258q0 34 25 34q27 0 27 -34v-257q0 -43 8.5 -68t32 -37.5t51 -16t78.5 -3.5h29z" />
    <glyph glyph-name="Umacron" unicode="&#x16a;" horiz-adv-x="620" 
d="M156 733q0 26 31 26h245q34 0 34 -28q0 -11 -9.5 -18t-24.5 -7h-245q-31 0 -31 27zM490 611q0 32 27 32q25 0 25 -33v-382q0 -110 -65 -173.5t-167 -63.5t-167 63t-65 174v382q0 33 26 33t26 -32v-382q0 -88 47 -137t133 -49t133 49t47 137v382z" />
    <glyph glyph-name="umacron" unicode="&#x16b;" horiz-adv-x="618" 
d="M151 556q0 26 31 26h245q34 0 34 -28q0 -11 -9.5 -18t-24.5 -7h-245q-31 0 -31 27zM321 52q85 0 128 45.5t43 132.5v204q0 34 26 34t26 -34v-406q0 -35 -24 -35q-28 0 -28 36v34q-59 -63 -171 -63h-29q-115 0 -168.5 35.5t-53.5 140.5v258q0 34 25 34q27 0 27 -34v-257
q0 -43 8.5 -68t32 -37.5t51 -16t78.5 -3.5h29z" />
    <glyph glyph-name="Ubreve" unicode="&#x16c;" horiz-adv-x="620" 
d="M490 611q0 32 27 32q25 0 25 -33v-382q0 -110 -65 -173.5t-167 -63.5t-167 63t-65 174v382q0 33 26 33t26 -32v-382q0 -88 47 -137t133 -49t133 49t47 137v382zM313 636q-46 0 -83 35.5t-37 95.5h53q0 -43 20.5 -60t46.5 -17t46.5 17t20.5 60h53q0 -61 -37.5 -96
t-82.5 -35z" />
    <glyph glyph-name="ubreve" unicode="&#x16d;" horiz-adv-x="618" 
d="M306 529q-46 0 -83 35.5t-37 95.5h53q0 -43 20.5 -60t46.5 -17t46.5 17t20.5 60h53q0 -61 -37.5 -96t-82.5 -35zM321 52q85 0 128 45.5t43 132.5v204q0 34 26 34t26 -34v-406q0 -35 -24 -35q-28 0 -28 36v34q-59 -63 -171 -63h-29q-115 0 -168.5 35.5t-53.5 140.5v258
q0 34 25 34q27 0 27 -34v-257q0 -43 8.5 -68t32 -37.5t51 -16t78.5 -3.5h29z" />
    <glyph glyph-name="Uring" unicode="&#x16e;" horiz-adv-x="620" 
d="M490 611q0 32 27 32q25 0 25 -33v-382q0 -110 -65 -173.5t-167 -63.5t-167 63t-65 174v382q0 33 26 33t26 -32v-382q0 -88 47 -137t133 -49t133 49t47 137v382zM272 716q0 -18 13 -31t31 -13q17 0 30.5 13t13.5 31t-13.5 31t-30.5 13q-18 0 -31 -13.5t-13 -30.5zM316 797
q34 0 57.5 -23.5t23.5 -57.5t-23.5 -57.5t-57.5 -23.5t-57.5 23.5t-23.5 57.5t23.5 57.5t57.5 23.5z" />
    <glyph glyph-name="uring" unicode="&#x16f;" horiz-adv-x="618" 
d="M321 52q85 0 128 45.5t43 132.5v204q0 34 26 34t26 -34v-406q0 -35 -24 -35q-28 0 -28 36v34q-59 -63 -171 -63h-29q-115 0 -168.5 35.5t-53.5 140.5v258q0 34 25 34q27 0 27 -34v-257q0 -43 8.5 -68t32 -37.5t51 -16t78.5 -3.5h29zM258 598q0 -18 13 -31t31 -13
q17 0 30.5 13t13.5 31t-13.5 31t-30.5 13q-18 0 -31 -13.5t-13 -30.5zM302 679q34 0 57.5 -23.5t23.5 -57.5t-23.5 -57.5t-57.5 -23.5t-57.5 23.5t-23.5 57.5t23.5 57.5t57.5 23.5z" />
    <glyph glyph-name="Uhungarumlaut" unicode="&#x170;" horiz-adv-x="620" 
d="M490 611q0 32 27 32q25 0 25 -33v-382q0 -110 -65 -173.5t-167 -63.5t-167 63t-65 174v382q0 33 26 33t26 -32v-382q0 -88 47 -137t133 -49t133 49t47 137v382zM354 761l-96 -115q-14 -15 -25 -15q-8 0 -16.5 7.5t-8.5 17.5q0 12 9 23l96 115q13 15 25 15q9 0 17 -7.5
t8 -18.5t-9 -22zM474 761l-96 -115q-14 -15 -25 -15q-8 0 -16.5 7.5t-8.5 17.5q0 12 9 23l96 115q13 15 25 15q9 0 17 -7.5t8 -18.5t-9 -22z" />
    <glyph glyph-name="uhungarumlaut" unicode="&#x171;" horiz-adv-x="618" 
d="M321 52q85 0 128 45.5t43 132.5v204q0 34 26 34t26 -34v-406q0 -35 -24 -35q-28 0 -28 36v34q-59 -63 -171 -63h-29q-115 0 -168.5 35.5t-53.5 140.5v258q0 34 25 34q27 0 27 -34v-257q0 -43 8.5 -68t32 -37.5t51 -16t78.5 -3.5h29zM344 654l-96 -115q-14 -15 -25 -15
q-8 0 -16.5 7.5t-8.5 17.5q0 13 9 23l96 115q13 15 25 15q9 0 17 -7.5t8 -18.5q0 -12 -9 -22zM464 654l-96 -115q-14 -15 -25 -15q-8 0 -16.5 7.5t-8.5 17.5q0 13 9 23l96 115q13 15 25 15q9 0 17 -7.5t8 -18.5q0 -12 -9 -22z" />
    <glyph glyph-name="Uogonek" unicode="&#x172;" horiz-adv-x="622" 
d="M325 -155q16 0 38 8.5t28 8.5q15 0 15 -17q0 -26 -27 -38t-52 -12q-41 0 -68.5 29t-27.5 75q0 33 43 94q-88 12 -141.5 73.5t-53.5 161.5v382q0 33 26 33t26 -32v-382q0 -88 47 -137t133 -49t133 49t47 137v382q0 32 27 32q25 0 25 -33v-382q0 -103 -57 -165t-149 -71
q-21 -19 -37.5 -49.5t-16.5 -43.5q0 -54 42 -54z" />
    <glyph glyph-name="uogonek" unicode="&#x173;" horiz-adv-x="618" 
d="M513 -155q16 0 38 8.5t28 8.5q15 0 15 -17q0 -26 -27 -38t-52 -12q-41 0 -68.5 29t-27.5 75q0 25 24 65t49 67v32q-59 -63 -171 -63h-29q-115 0 -168.5 35.5t-53.5 140.5v258q0 34 25 34q27 0 27 -34v-257q0 -43 8.5 -68t32 -37.5t51 -16t78.5 -3.5h29q85 0 128 45.5
t43 132.5v204q0 34 26 34t26 -34v-406q0 -30 -17 -34q-22 -18 -39 -49.5t-17 -45.5q0 -54 42 -54z" />
    <glyph glyph-name="Wcircumflex" unicode="&#x174;" horiz-adv-x="915" 
d="M322 687l105 132h59l107 -132q6 -8 6 -18q0 -23 -23 -23q-5 0 -9.5 2t-6 3.5t-6.5 7.5t-6 7l-91 96l-90 -96q-2 -2 -5 -6t-5 -5.5t-4.5 -4t-6 -3.5t-7.5 -1q-23 0 -23 23q0 10 6 18zM664 72l172 555q8 22 28 22q24 0 24 -19q0 -6 -4 -18l-192 -612h-58l-177 553
l-176 -553h-57l-193 616q-4 12 -4 18q0 19 24 19q20 0 28 -22l174 -559l175 554q9 26 29 26q23 0 31 -26z" />
    <glyph glyph-name="wcircumflex" unicode="&#x175;" horiz-adv-x="792" 
d="M261 575l105 132h59l107 -132q6 -8 6 -18q0 -23 -23 -23q-5 0 -9.5 2t-6 3.5t-6.5 7.5t-6 7l-91 96l-90 -96q-2 -2 -5 -6t-5 -5.5t-4.5 -4t-6 -3.5t-7.5 -1q-23 0 -23 23q0 10 6 18zM758 436l-155 -436h-79l-127 374l-137 -374h-79l-146 436q-4 12 -4 18q0 19 24 19
q20 0 28 -22l140 -403l146 398q8 21 29 21q20 0 27 -21l140 -398l145 403q8 22 28 22q24 0 24 -19q0 -6 -4 -18z" />
    <glyph glyph-name="Ycircumflex" unicode="&#x176;" horiz-adv-x="521" 
d="M124 687l105 132h59l107 -132q6 -8 6 -18q0 -23 -23 -23q-5 0 -9.5 2t-6 3.5t-6.5 7.5t-6 7l-91 96l-90 -96q-2 -2 -5 -6t-5 -5.5t-4.5 -4t-6 -3.5t-7.5 -1q-23 0 -23 23q0 10 6 18zM234 308l-209 289q-8 12 -8 21q0 11 8 18t17 7q11 0 25 -18l193 -267l192 267
q13 18 26 18q8 0 16.5 -7.5t8.5 -17.5q0 -9 -8 -21l-208 -289v-284q0 -31 -27 -31q-26 0 -26 31v284z" />
    <glyph glyph-name="ycircumflex" unicode="&#x177;" horiz-adv-x="619" 
d="M171 570l105 132h59l107 -132q6 -8 6 -18q0 -23 -23 -23q-5 0 -9.5 2t-6 3.5t-6.5 7.5t-6 7l-91 96l-90 -96q-2 -2 -5 -6t-5 -5.5t-4.5 -4t-6 -3.5t-7.5 -1q-23 0 -23 23q0 10 6 18zM544 -87q0 -65 -19 -91.5t-72 -26.5h-283q-32 0 -53.5 9.5t-31 27.5t-12.5 35t-3 40
q0 35 26 35t26 -33q0 -35 12 -48.5t43 -13.5h269q29 0 37.5 10t8.5 40v166q-59 -63 -171 -63h-29q-115 0 -168.5 35.5t-53.5 140.5v258q0 34 25 34q27 0 27 -34v-257q0 -43 8.5 -68t32 -37.5t51 -16t78.5 -3.5h29q85 0 128 45.5t43 132.5v204q0 34 26 34t26 -34v-521z" />
    <glyph glyph-name="Ydieresis" unicode="&#x178;" horiz-adv-x="521" 
d="M188 784q16 0 33.5 -12t17.5 -29t-17.5 -29t-33.5 -12q-17 0 -34 12t-17 29t17 29t34 12zM334 784q16 0 33.5 -12t17.5 -29t-17.5 -29t-33.5 -12q-17 0 -34 12t-17 29t17 29t34 12zM234 308l-209 289q-8 12 -8 21q0 11 8 18t17 7q11 0 25 -18l193 -267l192 267
q13 18 26 18q8 0 16.5 -7.5t8.5 -17.5q0 -9 -8 -21l-208 -289v-284q0 -31 -27 -31q-26 0 -26 31v284z" />
    <glyph glyph-name="Zacute" unicode="&#x179;" horiz-adv-x="555" 
d="M46 0v51l401 543h-366q-36 0 -36 26t36 26h428v-53l-399 -541h364q35 0 35 -27q0 -25 -35 -25h-428zM357 770l-70 -69q-12 -13 -24 -13q-10 0 -18 7.5t-8 16.5q0 11 13 26l69 68q12 13 25 13q11 0 18 -8.5t7 -16.5q0 -10 -12 -24z" />
    <glyph glyph-name="zacute" unicode="&#x17a;" horiz-adv-x="552" 
d="M126 52h267q36 0 46 18t10 59q0 36 26 36t26 -36q0 -70 -21 -99.5t-79 -29.5h-342v64l357 345h-250q-35 0 -45 -18t-10 -59q0 -36 -27 -36q-25 0 -25 36q0 71 21 100t79 29h321v-67zM401 635l-96 -115q-13 -15 -25 -15q-8 0 -16.5 7.5t-8.5 17.5q0 12 9 23l96 115
q14 15 25 15q9 0 17 -7.5t8 -18.5t-9 -22z" />
    <glyph glyph-name="Zdotaccent" unicode="&#x17b;" horiz-adv-x="555" 
d="M46 0v51l401 543h-366q-36 0 -36 26t36 26h428v-53l-399 -541h364q35 0 35 -27q0 -25 -35 -25h-428zM267 783q16 0 33.5 -12t17.5 -29t-17.5 -29t-33.5 -12q-17 0 -34 12t-17 29t17 29t34 12z" />
    <glyph glyph-name="zdotaccent" unicode="&#x17c;" horiz-adv-x="552" 
d="M126 52h267q36 0 46 18t10 59q0 36 26 36t26 -36q0 -70 -21 -99.5t-79 -29.5h-342v64l357 345h-250q-35 0 -45 -18t-10 -59q0 -36 -27 -36q-25 0 -25 36q0 71 21 100t79 29h321v-67zM273 599q16 0 33.5 -12t17.5 -29t-17.5 -29t-33.5 -12q-17 0 -34 12t-17 29t17 29
t34 12z" />
    <glyph glyph-name="Zcaron" unicode="&#x17d;" horiz-adv-x="555" 
d="M46 0v51l401 543h-366q-36 0 -36 26t36 26h428v-53l-399 -541h364q35 0 35 -27q0 -25 -35 -25h-428zM309 675h-56l-104 109q-7 7 -7 15q0 20 23 20q12 0 32 -17l84 -70l84 70q20 17 32 17q23 0 23 -20q0 -8 -7 -15z" />
    <glyph glyph-name="zcaron" unicode="&#x17e;" horiz-adv-x="552" 
d="M293 522h-56l-104 109q-7 7 -7 15q0 20 23 20q12 0 32 -17l84 -70l84 70q20 17 32 17q23 0 23 -20q0 -8 -7 -15zM126 52h267q36 0 46 18t10 59q0 36 26 36t26 -36q0 -70 -21 -99.5t-79 -29.5h-342v64l357 345h-250q-35 0 -45 -18t-10 -59q0 -36 -27 -36q-25 0 -25 36
q0 71 21 100t79 29h321v-67z" />
    <glyph glyph-name="florin" unicode="&#x192;" horiz-adv-x="333" 
d="M136 46q0 -93 -34 -122t-115 -29q-36 0 -36 27q0 25 36 25t52 2.5t27 17t12.5 36t1.5 70.5v337q-31 2 -31 26q0 23 31 25q1 55 16.5 91t47.5 53.5t68.5 24t90.5 6.5q36 0 36 -28q0 -24 -36 -24q-93 0 -129.5 -22t-37.5 -101h144q36 0 36 -28q0 -24 -36 -24h-144v-363z
" />
    <glyph glyph-name="Ohorn" unicode="&#x1a0;" horiz-adv-x="630" 
d="M297 593q-86 0 -133 -49t-47 -137v-178q0 -88 47 -137t133 -49t133 49t47 137v178q0 88 -47 137t-133 49zM297 -9q-102 0 -167 63t-65 174v180q0 111 65 174t167 63q128 0 192 -93q51 0 73 10.5t22 37.5q0 17 -23 35q-15 11 -15 26q0 11 8.5 18t16.5 7q12 0 23 -11
q44 -37 44 -79q0 -85 -124 -94q15 -42 15 -94v-180q0 -110 -65 -173.5t-167 -63.5z" />
    <glyph glyph-name="ohorn" unicode="&#x1a1;" horiz-adv-x="651" 
d="M285 52h29q51 0 78.5 3.5t51 16t32 37.5t8.5 68v107q0 43 -8.5 68t-32 37.5t-51 16t-78.5 3.5h-29q-51 0 -78.5 -3.5t-51.5 -16t-32.5 -37.5t-8.5 -68v-107q0 -43 8.5 -68t32.5 -37.5t51.5 -16t78.5 -3.5zM314 0h-29q-115 0 -169 35.5t-54 140.5v109q0 105 54 140.5
t169 35.5h29q90 0 141 -20.5t70 -77.5q42 2 61 13t19 35q0 17 -23 35q-15 11 -15 26q0 11 8.5 18t16.5 7q12 0 23 -11q44 -37 44 -79q0 -85 -124 -94q1 -9 1 -28v-109q0 -105 -53.5 -140.5t-168.5 -35.5z" />
    <glyph glyph-name="Uhorn" unicode="&#x1af;" horiz-adv-x="651" 
d="M490 611q0 32 27 32q25 0 25 -33v-62q36 3 51.5 14t15.5 33q0 17 -23 35q-15 11 -15 26q0 11 8.5 18t16.5 7q12 0 23 -11q44 -37 44 -79q0 -85 -121 -94v-269q0 -110 -65 -173.5t-167 -63.5t-167 63t-65 174v382q0 33 26 33t26 -32v-382q0 -88 47 -137t133 -49t133 49
t47 137v382z" />
    <glyph glyph-name="uhorn" unicode="&#x1b0;" horiz-adv-x="657" 
d="M321 52q85 0 128 45.5t43 132.5v204q0 34 26 34t26 -34v-63q37 2 53.5 13t16.5 34q0 17 -23 35q-15 11 -15 26q0 11 8.5 18t16.5 7q12 0 23 -11q44 -37 44 -79q0 -85 -124 -94v-292q0 -35 -24 -35q-28 0 -28 36v34q-59 -63 -171 -63h-29q-115 0 -168.5 35.5t-53.5 140.5
v258q0 34 25 34q27 0 27 -34v-257q0 -43 8.5 -68t32 -37.5t51 -16t78.5 -3.5h29z" />
    <glyph glyph-name="Scommaaccent" unicode="&#x218;" horiz-adv-x="600" 
d="M333 -79q0 -10 -5 -19l-41 -83q-10 -24 -25 -24q-22 0 -22 25q0 4 3 16l24 87q7 23 25 23q11 0 26 -6t15 -19zM114 481q0 -40 17.5 -68.5t42.5 -33.5l237 -51q67 -15 97 -62t30 -110q0 -67 -39.5 -115.5t-130.5 -48.5h-83q-57 0 -94 6.5t-68.5 25t-46 55t-14.5 93.5
q0 33 28 33q25 0 25 -33q0 -83 35.5 -105.5t134.5 -22.5h102q53 0 76 36t23 77q0 49 -19.5 79.5t-40.5 35.5l-235 52q-70 15 -99.5 52.5t-29.5 105.5q0 67 41 114.5t136 47.5h76q57 0 93.5 -6.5t68.5 -24.5t46.5 -54t14.5 -93q0 -33 -27 -33q-26 0 -26 33q0 83 -35 104.5
t-135 21.5h-98q-54 0 -78.5 -35t-24.5 -76z" />
    <glyph glyph-name="scommaaccent" unicode="&#x219;" horiz-adv-x="586" 
d="M335 -79q0 -10 -5 -19l-41 -83q-10 -24 -25 -24q-22 0 -22 25q0 4 3 16l24 87q7 23 25 23q11 0 26 -6t15 -19zM160 0q-32 0 -53.5 9.5t-31 27t-12.5 34.5t-3 40q0 36 26 36t26 -33q0 -34 11.5 -48t43.5 -14h248q59 0 59 74q0 37 -16.5 60.5t-42.5 23.5h-226
q-129 0 -129 130q0 60 31 90.5t108 30.5h225q32 0 53.5 -9.5t31 -27.5t12.5 -35t3 -40q0 -35 -26 -35t-26 33q0 35 -12 48.5t-43 13.5h-246q-59 0 -59 -69q0 -38 16.5 -58t42.5 -20h227q70 0 99 -39t29 -97q0 -62 -31.5 -94t-106.5 -32h-228z" />
    <glyph glyph-name="uni021A" unicode="&#x21a;" horiz-adv-x="481" 
d="M287 -79q0 -10 -5 -19l-41 -83q-10 -24 -25 -24q-22 0 -22 25q0 4 3 16l24 87q7 23 25 23q11 0 26 -6t15 -19zM421 636q33 0 33 -27q0 -25 -33 -25h-152v-559q0 -32 -29 -32q-26 0 -26 32v559h-154q-33 0 -33 26t33 26h361z" />
    <glyph glyph-name="uni021B" unicode="&#x21b;" horiz-adv-x="344" 
d="M223 -79q0 -10 -5 -19l-41 -83q-10 -24 -25 -24q-22 0 -22 25q0 4 3 16l24 87q7 23 25 23q11 0 26 -6t15 -19zM130 177q0 -81 34.5 -103t126.5 -22q35 0 35 -24q0 -28 -35 -28q-108 0 -160.5 36t-52.5 140v234q-31 2 -31 27q0 22 31 24v104q0 36 24 36q28 0 28 -36v-104
h138q36 0 36 -28q0 -24 -36 -24h-138v-232z" />
    <glyph glyph-name="uni0237" unicode="&#x237;" horiz-adv-x="202" 
d="M127 0q0 -56 -14.5 -91.5t-45 -53.5t-65.5 -24t-88 -6q-36 0 -36 27q0 25 36 25q92 0 126.5 22t34.5 101v432q0 36 27 36q25 0 25 -36v-432z" />
    <glyph glyph-name="circumflex" unicode="&#x2c6;" horiz-adv-x="402" 
d="M66 546l105 132h59l107 -132q6 -8 6 -18q0 -23 -23 -23q-5 0 -9.5 2t-6 3.5t-6.5 7.5t-6 7l-91 96l-90 -96q-2 -2 -5 -6t-5 -5.5t-4.5 -4t-6 -3.5t-7.5 -1q-23 0 -23 23q0 10 6 18z" />
    <glyph glyph-name="caron" unicode="&#x2c7;" horiz-adv-x="373" 
d="M217 522h-56l-104 109q-7 7 -7 15q0 20 23 20q12 0 32 -17l84 -70l84 70q20 17 32 17q23 0 23 -20q0 -8 -7 -15z" />
    <glyph glyph-name="breve" unicode="&#x2d8;" horiz-adv-x="426" 
d="M213 601q-46 0 -83 35.5t-37 95.5h53q0 -43 20.5 -60t46.5 -17t46.5 17t20.5 60h53q0 -61 -37.5 -96t-82.5 -35z" />
    <glyph glyph-name="dotaccent" unicode="&#x2d9;" horiz-adv-x="221" 
d="M111 671q16 0 33.5 -12t17.5 -29t-17.5 -29t-33.5 -12q-17 0 -34 12t-17 29t17 29t34 12z" />
    <glyph glyph-name="ring" unicode="&#x2da;" horiz-adv-x="282" 
d="M97 598q0 -18 13 -31t31 -13q17 0 30.5 13t13.5 31t-13.5 31t-30.5 13q-18 0 -31 -13.5t-13 -30.5zM141 679q34 0 57.5 -23.5t23.5 -57.5t-23.5 -57.5t-57.5 -23.5t-57.5 23.5t-23.5 57.5t23.5 57.5t57.5 23.5z" />
    <glyph glyph-name="ogonek" unicode="&#x2db;" horiz-adv-x="234" 
d="M134 -151q16 0 38 8.5t28 8.5q15 0 15 -17q0 -26 -27 -38t-52 -12q-41 0 -68.5 29t-27.5 75q0 27 27.5 71t52.5 68l38 -37q-25 -15 -45.5 -50.5t-20.5 -51.5q0 -54 42 -54z" />
    <glyph glyph-name="tilde" unicode="&#x2dc;" horiz-adv-x="401" 
d="M255 234q3 0 8 4l31 28q13 9 22 9q10 0 18 -6t8 -17q0 -14 -14 -27l-47 -39q-8 -8 -19 -8q-2 0 -4 0.5t-3.5 0.5t-2.5 1h-2l-98 36q-2 2 -6 2q-3 0 -8 -4l-31 -28q-13 -9 -22 -9t-17 6.5t-8 17.5q0 15 14 26l46 38q8 9 19 9q2 0 7 -1t6 -1l98 -36z" />
    <glyph glyph-name="hungarumlaut" unicode="&#x2dd;" horiz-adv-x="333" 
d="M175 635l-96 -115q-13 -15 -25 -15q-8 0 -16.5 7.5t-8.5 17.5q0 12 9 23l96 115q14 15 25 15q9 0 17 -7.5t8 -18.5t-9 -22zM295 635l-96 -115q-13 -15 -25 -15q-8 0 -16.5 7.5t-8.5 17.5q0 12 9 23l96 115q14 15 25 15q9 0 17 -7.5t8 -18.5t-9 -22z" />
    <glyph glyph-name="gravecomb" unicode="&#x300;" horiz-adv-x="0" 
d="M-349 636q12 0 24 -13l70 -69q12 -14 12 -25q0 -8 -7 -16t-18 -8q-13 0 -25 13l-69 68q-13 15 -13 25q0 8 8 16.5t18 8.5z" />
    <glyph glyph-name="acutecomb" unicode="&#x301;" horiz-adv-x="0" 
d="M-255 587l-70 -69q-12 -13 -24 -13q-10 0 -18 7.5t-8 16.5q0 11 13 26l69 68q12 13 25 13q11 0 18 -8.5t7 -16.5q0 -10 -12 -24z" />
    <glyph glyph-name="uni0302" unicode="&#x302;" horiz-adv-x="0" 
d="M-437 546l105 132h59l107 -132q6 -8 6 -18q0 -23 -23 -23q-5 0 -9.5 2t-6 3.5t-6.5 7.5t-6 7l-91 96l-90 -96q-2 -2 -5 -6t-5 -5.5t-4.5 -4t-6 -3.5t-7.5 -1q-23 0 -23 23q0 10 6 18z" />
    <glyph glyph-name="tildecomb" unicode="&#x303;" horiz-adv-x="0" 
d="M-230 546q3 0 8 4l31 28q13 9 22 9q10 0 18 -6t8 -17q0 -14 -14 -27l-47 -39q-8 -8 -19 -8q-2 0 -4 0.5t-3.5 0.5t-3.5 1h-1l-98 36q-2 2 -6 2q-3 0 -8 -4l-31 -28q-13 -9 -22 -9t-17 6.5t-8 17.5q0 15 14 26l46 38q7 9 19 9q2 0 7 -1t6 -1l98 -36z" />
    <glyph glyph-name="uni0304" unicode="&#x304;" horiz-adv-x="0" 
d="M-443 539q0 26 31 26h245q34 0 34 -28q0 -11 -9.5 -18t-24.5 -7h-245q-31 0 -31 27z" />
    <glyph glyph-name="uni0306" unicode="&#x306;" horiz-adv-x="0" 
d="M-305 499q-46 0 -83 35.5t-37 95.5h53q0 -43 20.5 -60t46.5 -17t46.5 17t20.5 60h53q0 -61 -37.5 -96t-82.5 -35z" />
    <glyph glyph-name="uni0307" unicode="&#x307;" horiz-adv-x="0" 
d="M-307 599q16 0 33.5 -12t17.5 -29t-17.5 -29t-33.5 -12q-17 0 -34 12t-17 29t17 29t34 12z" />
    <glyph glyph-name="uni0308" unicode="&#x308;" horiz-adv-x="0" 
d="M-381 587q16 0 33.5 -12t17.5 -29t-17.5 -29t-33.5 -12q-17 0 -34 12t-17 29t17 29t34 12zM-235 587q16 0 33.5 -12t17.5 -29t-17.5 -29t-33.5 -12q-17 0 -34 12t-17 29t17 29t34 12z" />
    <glyph glyph-name="hookabovecomb" unicode="&#x309;" horiz-adv-x="0" 
d="M-308 592q0 -18 -21 -18t-21 18q0 28 22 43t47 15q29 0 46 -19t17 -49q0 -18 -8.5 -30t-18.5 -16.5t-18.5 -11t-8.5 -15.5q0 -19 -20 -19q-11 0 -17.5 6t-6.5 13q0 20 8.5 32.5t18.5 16.5t18.5 11.5t8.5 17.5t-7 15.5t-14 5.5q-25 0 -25 -16z" />
    <glyph glyph-name="uni030A" unicode="&#x30a;" horiz-adv-x="0" 
d="M-351 586q0 -18 13 -31t31 -13q17 0 30.5 13t13.5 31t-13.5 31t-30.5 13q-18 0 -31 -13.5t-13 -30.5zM-307 667q34 0 57.5 -23.5t23.5 -57.5t-23.5 -57.5t-57.5 -23.5t-57.5 23.5t-23.5 57.5t23.5 57.5t57.5 23.5z" />
    <glyph glyph-name="uni030B" unicode="&#x30b;" horiz-adv-x="0" 
d="M-195 587l-70 -69q-12 -13 -24 -13q-10 0 -18 7.5t-8 16.5q0 11 13 26l69 68q12 13 25 13q11 0 18 -8.5t7 -16.5q0 -10 -12 -24zM-295 587l-70 -69q-12 -13 -24 -13q-10 0 -18 7.5t-8 16.5q0 11 13 26l69 68q12 13 25 13q11 0 18 -8.5t7 -16.5q0 -10 -12 -24z" />
    <glyph glyph-name="uni030C" unicode="&#x30c;" horiz-adv-x="0" 
d="M-271 522h-56l-104 109q-7 7 -7 15q0 20 23 20q12 0 32 -17l84 -70l84 70q20 17 32 17q23 0 23 -20q0 -8 -7 -15z" />
    <glyph glyph-name="uni0311" unicode="&#x311;" horiz-adv-x="0" 
d="M-305 630q46 0 83 -35.5t37 -95.5h-53q0 43 -20.5 60t-46.5 17t-46.5 -17t-20.5 -60h-53q0 61 37.5 96t82.5 35z" />
    <glyph glyph-name="commaturnedabovecmb" unicode="&#x312;" horiz-adv-x="0" 
d="M-267 546q0 10 5 19l41 83q10 24 25 24q22 0 22 -25q0 -4 -3 -16l-24 -86q-7 -24 -25 -24q-11 0 -26 6t-15 19z" />
    <glyph glyph-name="uni0313" unicode="&#x313;" horiz-adv-x="0" 
d="M-300 622q0 21 17 35t34 14q19 0 35 -14.5t16 -34.5q0 -33 -26.5 -79.5t-44.5 -46.5q-17 0 -17 20q0 9 10.5 29t10.5 34q-15 4 -25 18t-10 25z" />
    <glyph glyph-name="uni031B" unicode="&#x31b;" horiz-adv-x="99" 
d="M-62 552q52 0 74.5 10.5t22.5 37.5q0 17 -23 35q-15 11 -15 26q0 11 8.5 18t16.5 7q12 0 23 -11q44 -37 44 -79q0 -95 -151 -95v51z" />
    <glyph glyph-name="dotbelowcomb" unicode="&#x323;" horiz-adv-x="0" 
d="M-307 -57q16 0 33.5 -12t17.5 -29t-17.5 -29t-33.5 -12q-17 0 -34 12t-17 29t17 29t34 12z" />
    <glyph glyph-name="uni0326" unicode="&#x326;" horiz-adv-x="0" 
d="M-270 -73q0 -10 -5 -19l-41 -83q-10 -24 -25 -24q-22 0 -22 25q0 4 3 16l24 87q7 23 25 23q11 0 26 -6t15 -19z" />
    <glyph glyph-name="uni0327" unicode="&#x327;" horiz-adv-x="0" 
d="M-274 10q0 -16 11 -28.5t23.5 -19.5t23.5 -21.5t11 -34.5q0 -36 -28 -58.5t-68 -22.5q-25 0 -52 12t-27 38q0 18 15 18q6 0 29 -9t37 -9q42 0 42 26q0 10 -11 20.5t-23.5 19.5t-23.5 27t-11 42h52z" />
    <glyph glyph-name="uni0328" unicode="&#x328;" horiz-adv-x="0" 
d="M-190 -151q16 0 38 8.5t28 8.5q15 0 15 -17q0 -26 -27 -38t-52 -12q-41 0 -68.5 29t-27.5 75q0 27 27.5 71t52.5 68l38 -37q-25 -15 -45.5 -50.5t-20.5 -51.5q0 -54 42 -54z" />
    <glyph glyph-name="uni0334" unicode="&#x334;" horiz-adv-x="401" 
d="M-150 275q12 0 23 -6t11 -17q0 -20 -40.5 -47t-67.5 -27q-26 0 -85.5 20t-73.5 20q-20 0 -44.5 -20.5t-39.5 -20.5q-11 0 -21.5 6t-10.5 18q0 20 40 46.5t66 26.5t86 -20t74 -20q20 0 44 20.5t39 20.5z" />
    <glyph glyph-name="uni0335" unicode="&#x335;" horiz-adv-x="0" 
d="M-443 239q0 26 31 26h245q34 0 34 -28q0 -11 -9.5 -18t-24.5 -7h-245q-31 0 -31 27z" />
    <glyph glyph-name="uni0337" unicode="&#x337;" horiz-adv-x="0" 
d="M-183 282q0 -14 -25 -27l-170 -84q-8 -3 -15 -3q-14 0 -20 9t-6 19q0 13 22 24l170 85q15 3 17 3q12 0 19.5 -7.5t7.5 -18.5z" />
    <glyph glyph-name="uni037A" unicode="&#x37a;" horiz-adv-x="266" 
d="M192 -179h-7q-58 0 -79 29t-21 100v39q0 30 26 30t26 -30v-57q0 -33 11.5 -46t43.5 -13q35 0 35 -27q0 -25 -35 -25z" />
    <glyph glyph-name="questiongreek" unicode="&#x37e;" horiz-adv-x="251" 
d="M173 92q0 -10 -5 -19l-41 -83q-10 -24 -25 -24q-22 0 -22 25q0 4 3 16l24 87q7 23 25 23q11 0 26 -6t15 -19zM124 474q16 0 33.5 -12t17.5 -29t-17.5 -29t-33.5 -12q-17 0 -34 12t-17 29t17 29t34 12z" />
    <glyph glyph-name="tonos" unicode="&#x384;" horiz-adv-x="249" 
d="M149 648q25 0 25 -27q0 -7 -1 -11l-45 -157q-7 -35 -25 -35q-12 0 -20 10t-8 26q0 6 2 12l44 157q8 25 28 25z" />
    <glyph glyph-name="dieresistonos" unicode="&#x385;" horiz-adv-x="383" 
d="M99 587q16 0 33.5 -12t17.5 -29t-17.5 -29t-33.5 -12q-17 0 -34 12t-17 29t17 29t34 12zM245 587q16 0 33.5 -12t17.5 -29t-17.5 -29t-33.5 -12q-17 0 -34 12t-17 29t17 29t34 12zM227 814q25 0 25 -27q0 -7 -1 -11l-45 -157q-7 -35 -25 -35q-12 0 -20 10t-8 26q0 6 2 12
l44 157q8 25 28 25z" />
    <glyph glyph-name="Alphatonos" unicode="&#x386;" horiz-adv-x="576" 
d="M322 636l227 -611q3 -9 3 -16q0 -13 -9 -19t-17 -6q-17 0 -27 23l-71 192h-274l-71 -192q-10 -23 -27 -23q-8 0 -17 6t-9 19q0 7 3 16l227 611h62zM290 560l-116 -309h234zM185 750q25 0 25 -27q0 -7 -1 -11l-45 -157q-7 -35 -25 -35q-12 0 -20 10t-8 26q0 6 2 12l44 157
q8 25 28 25z" />
    <glyph glyph-name="anoteleia" unicode="&#x387;" horiz-adv-x="242" 
d="M121 428q16 0 33.5 -12t17.5 -29t-17.5 -29t-33.5 -12q-17 0 -34 12t-17 29t17 29t34 12z" />
    <glyph glyph-name="Epsilontonos" unicode="&#x388;" horiz-adv-x="641" 
d="M179 332v-280h378q34 0 34 -28q0 -24 -34 -24h-406q-24 0 -24 36v564q0 36 24 36h406q34 0 34 -28q0 -24 -34 -24h-378v-200h259q36 0 36 -28q0 -24 -36 -24h-259zM93 750q25 0 25 -27q0 -7 -1 -11l-45 -157q-7 -35 -25 -35q-12 0 -20 10t-8 26q0 6 2 12l44 157
q8 25 28 25z" />
    <glyph glyph-name="Etatonos" unicode="&#x389;" horiz-adv-x="678" 
d="M182 27q0 -34 -26 -34t-26 34v581q0 35 24 35q28 0 28 -35v-239h360v239q0 35 25 35q27 0 27 -35v-581q0 -34 -25 -34q-27 0 -27 34v290h-360v-290zM92 746q25 0 25 -27q0 -7 -1 -11l-45 -157q-7 -35 -25 -35q-12 0 -20 10t-8 26q0 6 2 12l44 157q8 25 28 25z" />
    <glyph glyph-name="Iotatonos" unicode="&#x38a;" horiz-adv-x="269" 
d="M185 25q0 -32 -27 -32q-25 0 -25 32v585q0 33 26 33t26 -33v-585zM91 750q25 0 25 -27q0 -7 -1 -11l-45 -157q-7 -35 -25 -35q-12 0 -20 10t-8 26q0 6 2 12l44 157q8 25 28 25z" />
    <glyph glyph-name="Omicrontonos" unicode="&#x38c;" horiz-adv-x="624" 
d="M327 -9q-102 0 -167 63t-65 174v180q0 111 65 174t167 63t167 -63.5t65 -173.5v-180q0 -110 -65 -173.5t-167 -63.5zM327 593q-86 0 -133 -49t-47 -137v-178q0 -88 47 -137t133 -49t133 49t47 137v178q0 88 -47 137t-133 49zM105 750q25 0 25 -27q0 -7 -1 -11l-45 -157
q-7 -35 -25 -35q-12 0 -20 10t-8 26q0 6 2 12l44 157q8 25 28 25z" />
    <glyph glyph-name="Upsilontonos" unicode="&#x38e;" horiz-adv-x="633" 
d="M346 308l-209 289q-8 12 -8 21q0 11 8 18t17 7q11 0 25 -18l193 -267l192 267q13 18 26 18q8 0 16.5 -7.5t8.5 -17.5q0 -9 -8 -21l-208 -289v-284q0 -31 -27 -31q-26 0 -26 31v284zM99 746q25 0 25 -27q0 -7 -1 -11l-45 -157q-7 -35 -25 -35q-12 0 -20 10t-8 26q0 6 2 12
l44 157q8 25 28 25z" />
    <glyph glyph-name="Omegatonos" unicode="&#x38f;" horiz-adv-x="622" 
d="M146 326q0 -148 133 -182v-45q0 -69 -15.5 -84t-77.5 -15h-57q-35 0 -35 26t35 26h50q33 0 39.5 4.5t6.5 27.5v26q-61 26 -96 81.5t-35 135.5v81q0 111 65 174t167 63t167 -63.5t65 -173.5v-81q0 -80 -35 -135.5t-96 -81.5v-27q0 -23 6 -27t40 -4h50q35 0 35 -26t-35 -26
h-57q-62 0 -77.5 15t-15.5 84v46q133 30 133 181v81q0 87 -47.5 136.5t-132.5 49.5t-132.5 -49.5t-47.5 -136.5v-81zM112 750q25 0 25 -27q0 -7 -1 -11l-45 -157q-7 -35 -25 -35q-12 0 -20 10t-8 26q0 6 2 12l44 157q8 25 28 25z" />
    <glyph glyph-name="iotadieresistonos" unicode="&#x390;" horiz-adv-x="228" 
d="M25 593q16 0 33.5 -12t17.5 -29t-17.5 -29t-33.5 -12q-17 0 -34 12t-17 29t17 29t34 12zM171 593q16 0 33.5 -12t17.5 -29t-17.5 -29t-33.5 -12q-17 0 -34 12t-17 29t17 29t34 12zM153 820q25 0 25 -27q0 -7 -1 -11l-45 -157q-7 -35 -25 -35q-12 0 -20 10t-8 26q0 6 2 12
l44 157q8 25 28 25zM179 0h-7q-58 0 -79 28t-21 98v308q0 34 26 34t26 -34v-324q0 -32 11.5 -45t43.5 -13q35 0 35 -27q0 -25 -35 -25z" />
    <glyph glyph-name="Alpha" unicode="&#x391;" horiz-adv-x="570" 
d="M316 636l227 -611q3 -9 3 -16q0 -13 -9 -19t-17 -6q-17 0 -27 23l-71 192h-274l-71 -192q-10 -23 -27 -23q-8 0 -17 6t-9 19q0 7 3 16l227 611h62zM284 560l-116 -309h234z" />
    <glyph glyph-name="Beta" unicode="&#x392;" horiz-adv-x="605" 
d="M136 332v-280h190q98 0 134 22.5t36 103.5v28q0 81 -35 103.5t-129 22.5h-196zM84 36v564q0 36 24 36h180q111 0 164.5 -31t53.5 -119q0 -76 -49 -112q46 -17 68.5 -55.5t22.5 -109.5v-29q0 -108 -53.5 -144t-168.5 -36h-218q-24 0 -24 36zM288 384q92 0 129 19t37 78
q0 63 -36.5 80.5t-129.5 17.5h-152v-195h152z" />
    <glyph glyph-name="Gamma" unicode="&#x393;" horiz-adv-x="557" 
d="M189 584q-32 0 -43.5 -13.5t-11.5 -45.5v-498q0 -34 -27 -34q-25 0 -25 34v482q0 70 21 98.5t79 28.5h315q35 0 35 -26t-35 -26h-308z" />
    <glyph glyph-name="Delta" unicode="&#x394;" horiz-adv-x="552" 
d="M500 0h-448q-12 0 -19.5 7t-7.5 18q0 7 3 15l219 581q8 23 29 23t29 -23l219 -581q3 -8 3 -15q0 -11 -7.5 -18t-19.5 -7zM88 53h376l-188 501z" />
    <glyph glyph-name="Epsilon" unicode="&#x395;" horiz-adv-x="598" 
d="M136 332v-280h378q34 0 34 -28q0 -24 -34 -24h-406q-24 0 -24 36v564q0 36 24 36h406q34 0 34 -28q0 -24 -34 -24h-378v-200h259q36 0 36 -28q0 -24 -36 -24h-259z" />
    <glyph glyph-name="Zeta" unicode="&#x396;" horiz-adv-x="555" 
d="M46 0v51l401 543h-366q-36 0 -36 26t36 26h428v-53l-399 -541h364q35 0 35 -27q0 -25 -35 -25h-428z" />
    <glyph glyph-name="Eta" unicode="&#x397;" horiz-adv-x="632" 
d="M136 27q0 -34 -26 -34t-26 34v581q0 35 24 35q28 0 28 -35v-239h360v239q0 35 25 35q27 0 27 -35v-581q0 -34 -25 -34q-27 0 -27 34v290h-360v-290z" />
    <glyph glyph-name="Theta" unicode="&#x398;" horiz-adv-x="594" 
d="M209 291q-16 0 -24 8t-8 19q0 26 32 26h173q35 0 35 -26q0 -12 -10 -19.5t-25 -7.5h-173zM297 -9q-102 0 -167 63t-65 174v180q0 111 65 174t167 63t167 -63.5t65 -173.5v-180q0 -110 -65 -173.5t-167 -63.5zM297 593q-86 0 -133 -49t-47 -137v-178q0 -88 47 -137
t133 -49t133 49t47 137v178q0 88 -47 137t-133 49z" />
    <glyph glyph-name="Iota" unicode="&#x399;" horiz-adv-x="220" 
d="M136 25q0 -32 -27 -32q-25 0 -25 32v585q0 33 26 33t26 -33v-585z" />
    <glyph glyph-name="Kappa" unicode="&#x39a;" horiz-adv-x="518" 
d="M514 18q0 -10 -9 -17.5t-17 -7.5q-13 0 -25 15l-274 314l-53 -64v-233q0 -32 -27 -32q-25 0 -25 32v585q0 33 26 33t26 -33v-280l261 298q11 15 25 15q8 0 16.5 -7t8.5 -17q0 -11 -10 -24l-213 -239l279 -315q11 -13 11 -23z" />
    <glyph glyph-name="Lambda" unicode="&#x39b;" horiz-adv-x="570" 
d="M50 -16q-5 0 -10 1.5t-10.5 6.5t-5.5 12q0 8 3 18l231 614h54l231 -614q3 -10 3 -18q0 -7 -5.5 -12t-10.5 -6.5t-10 -1.5q-17 0 -27 20l-209 555l-207 -555q-8 -20 -27 -20z" />
    <glyph glyph-name="Mu" unicode="&#x39c;" horiz-adv-x="653" 
d="M326 279q-11 0 -17 8l-173 258v-517q0 -35 -26 -35t-26 34v581q0 35 24 35q18 0 30 -19l188 -278l189 278q13 19 29 19q25 0 25 -35v-581q0 -34 -27 -34q-25 0 -25 35v517l-173 -258q-6 -8 -18 -8z" />
    <glyph glyph-name="Nu" unicode="&#x39d;" horiz-adv-x="632" 
d="M523 -7q-14 0 -20 7l-367 543v-517q0 -33 -26 -33t-26 34v581q0 35 24 35q18 0 30 -19l358 -528v511q0 36 25 36q27 0 27 -35v-581q0 -34 -25 -34z" />
    <glyph glyph-name="Xi" unicode="&#x39e;" horiz-adv-x="609" 
d="M202 291q-16 0 -24 8t-8 19q0 26 32 26h203q35 0 35 -26q0 -12 -10 -19.5t-25 -7.5h-203zM84 595q-31 0 -31 26t31 26h440q34 0 34 -28q0 -24 -34 -24h-440zM84 0q-31 0 -31 26t31 26h440q34 0 34 -28q0 -24 -34 -24h-440z" />
    <glyph glyph-name="Omicron" unicode="&#x39f;" horiz-adv-x="594" 
d="M297 -9q-102 0 -167 63t-65 174v180q0 111 65 174t167 63t167 -63.5t65 -173.5v-180q0 -110 -65 -173.5t-167 -63.5zM297 593q-86 0 -133 -49t-47 -137v-178q0 -88 47 -137t133 -49t133 49t47 137v178q0 88 -47 137t-133 49z" />
    <glyph glyph-name="Pi" unicode="&#x3a0;" horiz-adv-x="624" 
d="M85 636h454v-609q0 -34 -25 -34q-27 0 -27 34v557h-350v-557q0 -34 -26 -34t-26 34v609z" />
    <glyph glyph-name="Rho" unicode="&#x3a1;" horiz-adv-x="540" 
d="M136 25q0 -32 -27 -32q-25 0 -25 32v575q0 36 24 36h181q108 0 162.5 -33t54.5 -122q0 -75 -45.5 -114.5t-127.5 -39.5h-197v-302zM289 379q92 0 128.5 20t36.5 82q0 64 -37 83.5t-128 19.5h-153v-205h153z" />
    <glyph glyph-name="Sigma" unicode="&#x3a3;" horiz-adv-x="577" 
d="M30 622q0 25 31 25h440q34 0 34 -28q0 -24 -34 -24h-389l223 -250q11 -14 11 -22q0 -10 -10 -22l-224 -249h389q34 0 34 -28q0 -24 -34 -24h-446q-10 0 -17.5 7t-7.5 18t10 23l243 275l-243 276q-10 10 -10 23z" />
    <glyph glyph-name="Tau" unicode="&#x3a4;" horiz-adv-x="481" 
d="M421 636q33 0 33 -27q0 -25 -33 -25h-152v-559q0 -32 -29 -32q-26 0 -26 32v559h-154q-33 0 -33 26t33 26h361z" />
    <glyph glyph-name="Upsilon" unicode="&#x3a5;" horiz-adv-x="521" 
d="M234 308l-209 289q-8 12 -8 21q0 11 8 18t17 7q11 0 25 -18l193 -267l192 267q13 18 26 18q8 0 16.5 -7.5t8.5 -17.5q0 -9 -8 -21l-208 -289v-284q0 -31 -27 -31q-26 0 -26 31v284z" />
    <glyph glyph-name="Phi" unicode="&#x3a6;" horiz-adv-x="548" 
d="M303 25q0 -32 -28 -32q-26 0 -26 32v51q-93 8 -150 70t-57 166v12q0 104 57 166t150 70v50q0 33 27 33t27 -33v-50q91 -9 147 -71t56 -165v-12q0 -103 -56 -165t-147 -71v-51zM303 511v-386q72 7 111.5 56.5t39.5 130.5v12q0 80 -39.5 129.5t-111.5 57.5zM94 312
q0 -83 40.5 -132t114.5 -56v388q-74 -7 -114.5 -56.5t-40.5 -131.5v-12z" />
    <glyph glyph-name="Chi" unicode="&#x3a7;" horiz-adv-x="559" 
d="M497 643q8 0 17 -6t9 -20q0 -12 -8 -21l-203 -279l203 -278q8 -11 8 -22t-8.5 -17.5t-17.5 -6.5q-13 0 -25 16l-193 268l-192 -268q-12 -16 -26 -16q-9 0 -17 7t-8 17q0 11 8 22l203 278l-203 279q-8 9 -8 21q0 14 9 20t16 6q13 0 26 -18l192 -267l193 267q14 18 25 18z
" />
    <glyph glyph-name="Psi" unicode="&#x3a8;" horiz-adv-x="560" 
d="M460 610q0 33 27 33q25 0 25 -33v-153q0 -103 -56.5 -165t-147.5 -71v-196q0 -32 -28 -32q-26 0 -26 32v196q-93 8 -149.5 70t-56.5 166v153q0 33 26 33t26 -33v-156q0 -82 40 -131t114 -57v344q0 33 27 33t27 -33v-343q73 7 112.5 56t39.5 131v156z" />
    <glyph glyph-name="Omega" unicode="&#x3a9;" 
d="M116 326q0 -148 133 -182v-45q0 -69 -15.5 -84t-77.5 -15h-57q-35 0 -35 26t35 26h50q33 0 39.5 4.5t6.5 27.5v26q-61 26 -96 81.5t-35 135.5v81q0 111 65 174t167 63t167 -63.5t65 -173.5v-81q0 -80 -35 -135.5t-96 -81.5v-27q0 -23 6 -27t40 -4h50q35 0 35 -26t-35 -26
h-57q-62 0 -77.5 15t-15.5 84v46q133 30 133 181v81q0 87 -47.5 136.5t-132.5 49.5t-132.5 -49.5t-47.5 -136.5v-81z" />
    <glyph glyph-name="Iotadieresis" unicode="&#x3aa;" horiz-adv-x="220" 
d="M136 25q0 -32 -27 -32q-25 0 -25 32v585q0 33 26 33t26 -33v-585zM38 784q16 0 33.5 -12t17.5 -29t-17.5 -29t-33.5 -12q-17 0 -34 12t-17 29t17 29t34 12zM184 784q16 0 33.5 -12t17.5 -29t-17.5 -29t-33.5 -12q-17 0 -34 12t-17 29t17 29t34 12z" />
    <glyph glyph-name="Upsilondieresis" unicode="&#x3ab;" horiz-adv-x="521" 
d="M234 308l-209 289q-8 12 -8 21q0 11 8 18t17 7q11 0 25 -18l193 -267l192 267q13 18 26 18q8 0 16.5 -7.5t8.5 -17.5q0 -9 -8 -21l-208 -289v-284q0 -31 -27 -31q-26 0 -26 31v284zM188 784q16 0 33.5 -12t17.5 -29t-17.5 -29t-33.5 -12q-17 0 -34 12t-17 29t17 29t34 12
zM334 784q16 0 33.5 -12t17.5 -29t-17.5 -29t-33.5 -12q-17 0 -34 12t-17 29t17 29t34 12z" />
    <glyph glyph-name="alphatonos" unicode="&#x3ac;" horiz-adv-x="585" 
d="M520 0h-7q-41 0 -63 14t-31 46q-55 -60 -159 -60q-103 0 -151.5 44t-48.5 152v69q0 108 48.5 152t151.5 44q96 0 152 -53v25q0 35 27 35q26 0 26 -34v-324q0 -32 11.5 -45t43.5 -13q35 0 35 -27q0 -25 -35 -25zM260 409q-85 0 -116.5 -29.5t-31.5 -114.5v-69
q0 -85 31.5 -114.5t116.5 -29.5q152 0 152 144v69q0 144 -152 144zM308 749q25 0 25 -27q0 -7 -1 -11l-45 -157q-7 -35 -25 -35q-12 0 -20 10t-8 26q0 6 2 12l44 157q8 25 28 25z" />
    <glyph glyph-name="epsilontonos" unicode="&#x3ad;" horiz-adv-x="593" 
d="M317 212h-86q-118 0 -118 -98q0 -62 122 -62h123q14 0 30.5 2.5t40 9t39 23.5t15.5 42q0 35 27 35q25 0 25 -35q0 -67 -48.5 -98t-121.5 -31h-137q-72 0 -119.5 30t-47.5 96q0 74 59 111q-59 26 -59 98q0 66 47.5 96t119.5 30h137q73 0 121.5 -31t48.5 -98q0 -35 -25 -35
q-27 0 -27 35q0 25 -15 42t-38.5 23.5t-40.5 9t-31 2.5h-123q-123 0 -123 -62q0 -48 27 -65.5t92 -17.5h86q36 0 36 -28q0 -24 -36 -24zM326 742q25 0 25 -27q0 -7 -1 -11l-45 -157q-7 -35 -25 -35q-12 0 -20 10t-8 26q0 6 2 12l44 157q8 25 28 25z" />
    <glyph glyph-name="etatonos" unicode="&#x3ae;" horiz-adv-x="619" 
d="M297 409q-85 0 -128 -45.5t-43 -132.5v-204q0 -34 -26 -34t-26 34v406q0 35 24 35q28 0 28 -36v-34q59 63 171 63h29q115 0 168.5 -35.5t53.5 -141.5v-454q0 -35 -25 -35q-27 0 -27 35v453q0 81 -36 103.5t-134 22.5h-29zM366 749q25 0 25 -27q0 -7 -1 -11l-45 -157
q-7 -35 -25 -35q-12 0 -20 10t-8 26q0 6 2 12l44 157q8 25 28 25z" />
    <glyph glyph-name="iotatonos" unicode="&#x3af;" horiz-adv-x="228" 
d="M179 0h-7q-58 0 -79 28t-21 98v308q0 34 26 34t26 -34v-324q0 -32 11.5 -45t43.5 -13q35 0 35 -27q0 -25 -35 -25zM156 749q25 0 25 -27q0 -7 -1 -11l-45 -157q-7 -35 -25 -35q-12 0 -20 10t-8 26q0 6 2 12l44 157q8 25 28 25z" />
    <glyph glyph-name="upsilondieresistonos" unicode="&#x3b0;" horiz-adv-x="603" 
d="M228 611q16 0 33.5 -12t17.5 -29t-17.5 -29t-33.5 -12q-17 0 -34 12t-17 29t17 29t34 12zM374 611q16 0 33.5 -12t17.5 -29t-17.5 -29t-33.5 -12q-17 0 -34 12t-17 29t17 29t34 12zM356 838q25 0 25 -27q0 -7 -1 -11l-45 -157q-7 -35 -25 -35q-12 0 -20 10t-8 26
q0 6 2 12l44 157q8 25 28 25zM320 0h-28q-115 0 -169 35.5t-54 140.5v258q0 34 25 34q27 0 27 -34v-257q0 -81 36 -103t135 -22h28q97 0 129 22t32 103v257q0 34 26 34t26 -34v-258q0 -106 -49.5 -141t-163.5 -35z" />
    <glyph glyph-name="alpha" unicode="&#x3b1;" horiz-adv-x="585" 
d="M520 0h-7q-41 0 -63 14t-31 46q-55 -60 -159 -60q-103 0 -151.5 44t-48.5 152v69q0 108 48.5 152t151.5 44q96 0 152 -53v25q0 35 27 35q26 0 26 -34v-324q0 -32 11.5 -45t43.5 -13q35 0 35 -27q0 -25 -35 -25zM260 409q-85 0 -116.5 -29.5t-31.5 -114.5v-69
q0 -85 31.5 -114.5t116.5 -29.5q152 0 152 144v69q0 144 -152 144z" />
    <glyph glyph-name="beta" unicode="&#x3b2;" horiz-adv-x="486" 
d="M127 47v-158q0 -36 -28 -36q-24 0 -24 36v572q1 102 45.5 138.5t114.5 36.5t114 -40t44 -104q0 -89 -73 -137q47 -14 75.5 -49t35.5 -65t7 -62q0 -186 -171 -186q-84 0 -140 54zM127 461v-337q67 -81 138 -81q21 0 35.5 2.5t37.5 14t35.5 42t12.5 78.5q0 64 -43 105
t-146 41v51q144 0 144 117q0 42 -31.5 66t-74.5 24q-57 0 -82.5 -22.5t-25.5 -100.5z" />
    <glyph glyph-name="gamma" unicode="&#x3b3;" horiz-adv-x="525" 
d="M56 409q-33 0 -33 26t33 26q59 0 85.5 -50.5t90.5 -261.5q20 -65 31 -103l183 401q10 21 28 21q9 0 16.5 -6.5t7.5 -16.5q0 -5 -3 -12l-210 -459v-121q0 -35 -29 -35q-25 0 -25 35v120q-81 267 -113.5 351.5t-61.5 84.5z" />
    <glyph glyph-name="delta" unicode="&#x3b4;" horiz-adv-x="565" 
d="M111 586q-16 7 -16 25q0 26 31 26h323q34 0 34 -28q0 -25 -34 -25h-203q268 -100 268 -379q0 -98 -63 -155t-169 -57q-59 0 -106 22t-74.5 58.5t-42 78.5t-14.5 86t16 82t42 63.5t58.5 43.5t64.5 26t62 8q46 0 82 -15q-56 63 -170 106zM286 46q85 0 130 43.5t45 118.5
q0 90 -45.5 145.5t-125.5 55.5q-41 0 -83 -17t-75.5 -59.5t-33.5 -100.5q0 -76 50.5 -131t137.5 -55z" />
    <glyph glyph-name="epsilon" unicode="&#x3b5;" horiz-adv-x="593" 
d="M317 212h-86q-118 0 -118 -98q0 -62 122 -62h123q14 0 30.5 2.5t40 9t39 23.5t15.5 42q0 35 27 35q25 0 25 -35q0 -67 -48.5 -98t-121.5 -31h-137q-72 0 -119.5 30t-47.5 96q0 74 59 111q-59 26 -59 98q0 66 47.5 96t119.5 30h137q73 0 121.5 -31t48.5 -98q0 -35 -25 -35
q-27 0 -27 35q0 25 -15 42t-38.5 23.5t-40.5 9t-31 2.5h-123q-123 0 -123 -62q0 -48 27 -65.5t92 -17.5h86q36 0 36 -28q0 -24 -36 -24z" />
    <glyph glyph-name="zeta" unicode="&#x3b6;" horiz-adv-x="503" 
d="M285 -7q-106 0 -169.5 57t-63.5 155q0 278 270 379h-205q-34 0 -34 25q0 28 34 28h323q31 0 31 -26q0 -24 -16 -30q-4 -2 -37.5 -13.5t-52.5 -19t-56 -26t-60.5 -36t-53.5 -46.5t-47.5 -61t-30 -76t-12.5 -94q0 -75 45.5 -119t131.5 -44q45 0 72 -1.5t56.5 -8.5t45 -20.5
t25.5 -37.5t10 -60q0 -40 -25.5 -68.5t-49.5 -28.5q-10 0 -16.5 8t-6.5 18q0 12 23 30t23 37q0 52 -30 65.5t-124 13.5z" />
    <glyph glyph-name="eta" unicode="&#x3b7;" horiz-adv-x="619" 
d="M297 409q-85 0 -128 -45.5t-43 -132.5v-204q0 -34 -26 -34t-26 34v406q0 35 24 35q28 0 28 -36v-34q59 63 171 63h29q115 0 168.5 -35.5t53.5 -141.5v-454q0 -35 -25 -35q-27 0 -27 35v453q0 81 -36 103.5t-134 22.5h-29z" />
    <glyph glyph-name="theta" unicode="&#x3b8;" horiz-adv-x="524" 
d="M262 593q-145 0 -145 -185v-64h290v64q0 185 -145 185zM262 -9q-197 0 -197 237v180q0 237 197 237q98 0 147.5 -61t49.5 -176v-180q0 -115 -49.5 -176t-147.5 -61zM407 228v63h-290v-63q0 -185 145 -185t145 185z" />
    <glyph glyph-name="iota" unicode="&#x3b9;" horiz-adv-x="228" 
d="M179 0h-7q-58 0 -79 28t-21 98v308q0 34 26 34t26 -34v-324q0 -32 11.5 -45t43.5 -13q35 0 35 -27q0 -25 -35 -25z" />
    <glyph glyph-name="kappa" unicode="&#x3ba;" horiz-adv-x="459" 
d="M428 19q0 -9 -7 -17.5t-17 -8.5q-12 0 -23 9l-255 205v-183q0 -31 -27 -31q-25 0 -25 31v412q0 32 26 32t26 -32v-179l254 204q12 10 24 10q10 0 17 -9t7 -17q0 -14 -15 -24l-240 -189l241 -190q14 -10 14 -23z" />
    <glyph glyph-name="lambda" unicode="&#x3bb;" horiz-adv-x="577" 
d="M414 72l-151 346l-184 -404q-9 -21 -28 -21q-9 0 -16.5 6.5t-7.5 16.5q0 4 3 12l203 446l-21 51q-12 27 -34 43t-44 16q-34 0 -34 25q0 28 34 28q38 0 70.5 -21t47.5 -57l203 -454q11 -26 32 -42t43 -16q34 0 34 -25q0 -28 -34 -28q-37 0 -69 21t-47 57z" />
    <glyph glyph-name="mu" unicode="&#x3bc;" horiz-adv-x="574" 
d="M449 228v210q0 35 25 35q27 0 27 -35v-414q0 -36 -25 -36q-27 0 -27 36v34q-59 -63 -161 -63t-161 63v-227q0 -36 -28 -36q-24 0 -24 36v607q0 35 25 35q27 0 27 -35v-210q0 -88 41.5 -134.5t119.5 -46.5q77 0 119 46.5t42 134.5z" />
    <glyph glyph-name="nu" unicode="&#x3bd;" horiz-adv-x="509" 
d="M252 51l178 401q9 21 28 21q24 0 24 -20q0 -8 -4 -17l-194 -441h-70l-182 441q-4 9 -4 16q0 21 24 21q18 0 28 -22z" />
    <glyph glyph-name="xi" unicode="&#x3be;" horiz-adv-x="502" 
d="M287 46q45 0 72 -1.5t56.5 -8.5t45 -20.5t25.5 -37.5t10 -60q0 -40 -25.5 -68.5t-49.5 -28.5q-10 0 -16.5 8t-6.5 18q0 12 23 30t23 37q0 52 -30 65.5t-124 13.5q-39 0 -68 3t-61.5 14t-53 29.5t-34.5 52.5t-14 81q0 43 22 88t48 64q-26 15 -48 56.5t-22 85.5
q0 75 61 117h-49q-31 0 -31 27q0 25 31 25h321q34 0 34 -27q0 -25 -34 -25q-282 0 -282 -117q0 -53 29.5 -81.5t82.5 -28.5h90q38 0 38 -28q0 -23 -38 -23h-90q-49 0 -80 -43.5t-31 -101.5q0 -37 19 -62t50 -35.5t56 -14t51 -3.5z" />
    <glyph glyph-name="omicron" unicode="&#x3bf;" horiz-adv-x="598" 
d="M314 0h-29q-115 0 -169 35.5t-54 140.5v109q0 105 54 140.5t169 35.5h29q115 0 168.5 -35.5t53.5 -140.5v-109q0 -105 -53.5 -140.5t-168.5 -35.5zM285 52h29q51 0 78.5 3.5t51 16t32 37.5t8.5 68v107q0 43 -8.5 68t-32 37.5t-51 16t-78.5 3.5h-29q-51 0 -78.5 -3.5
t-51.5 -16t-32.5 -37.5t-8.5 -68v-107q0 -43 8.5 -68t32.5 -37.5t51.5 -16t78.5 -3.5z" />
    <glyph glyph-name="pi" unicode="&#x3c0;" horiz-adv-x="606" 
d="M430 409h-289v-382q0 -34 -26 -34t-26 34v382h-15q-33 0 -33 26t33 26h424q33 0 33 -27q0 -25 -33 -25h-15v-300q0 -32 11.5 -44.5t43.5 -12.5q35 0 35 -27q0 -25 -35 -25h-8q-58 0 -79 28t-21 98v283z" />
    <glyph glyph-name="rho" unicode="&#x3c1;" horiz-adv-x="600" 
d="M486 284q0 43 -8.5 68t-32 37.5t-51 16t-78.5 3.5h-29q-171 0 -171 -177v-180h201q98 0 133.5 22t35.5 103v107zM287 461h29q115 0 168.5 -35.5t53.5 -140.5v-109q0 -105 -53.5 -140.5t-167.5 -35.5h-201v-147q0 -35 -28 -35q-24 0 -24 35v362q0 246 223 246z" />
    <glyph glyph-name="sigma1" unicode="&#x3c2;" horiz-adv-x="489" 
d="M100 229q0 -183 143 -183q46 0 72.5 -1.5t56.5 -8.5t45.5 -20.5t25.5 -37.5t10 -60q0 -40 -25.5 -68.5t-49.5 -28.5q-10 0 -16.5 8t-6.5 18q0 12 23 30t23 37q0 52 -30.5 65.5t-124.5 13.5q-100 0 -149.5 64.5t-49.5 168.5q0 111 94 176.5t277 65.5q34 0 34 -25
q0 -28 -34 -28q-93 0 -158.5 -16.5t-98.5 -45t-47 -58.5t-14 -66z" />
    <glyph glyph-name="sigma" unicode="&#x3c3;" horiz-adv-x="622" 
d="M553 461q35 0 35 -26t-35 -26h-90q63 -57 63 -157v-76q0 -106 -50 -141t-162 -35h-29q-115 0 -169 35.5t-54 140.5v109q0 105 54 140.5t169 35.5h268zM285 409q-51 0 -78.5 -3.5t-51.5 -16t-32.5 -37.5t-8.5 -68v-107q0 -43 8.5 -68t32.5 -37.5t51.5 -16t78.5 -3.5h29
q95 0 127.5 21.5t32.5 103.5v75q0 76 -47 116.5t-135 40.5h-7z" />
    <glyph glyph-name="tau" unicode="&#x3c4;" horiz-adv-x="478" 
d="M262 109q0 -32 12 -44.5t46 -12.5q24 0 34.5 -5.5t10.5 -21.5q0 -25 -45 -25h-8q-61 0 -83 28t-22 98v283h-154q-33 0 -33 26t33 26h361q33 0 33 -27q0 -25 -33 -25h-152v-300z" />
    <glyph glyph-name="upsilon" unicode="&#x3c5;" horiz-adv-x="605" 
d="M321 0h-28q-115 0 -169 35.5t-54 140.5v258q0 34 25 34q27 0 27 -34v-257q0 -81 36 -103t135 -22h28q97 0 129 22t32 103v257q0 34 26 34t26 -34v-258q0 -106 -49.5 -141t-163.5 -35z" />
    <glyph glyph-name="phi" unicode="&#x3c6;" horiz-adv-x="628" 
d="M422 461q73 0 108 -35.5t35 -140.5v-109q0 -47 -13.5 -81t-33 -52t-52 -28t-59.5 -12.5t-67 -2.5v-147q0 -35 -28 -35q-26 0 -26 35v147q-108 2 -165.5 39t-57.5 137v131q0 66 29.5 110t99.5 44q37 0 37 -25q0 -27 -37 -27h-18q-29 0 -44 -32t-15 -80v-127
q0 -78 40 -102.5t131 -25.5v169q0 35 0.5 55t3 50t7.5 47.5t15 38.5t24.5 32.5t36 19t49.5 7.5zM427 409q-50 0 -68.5 -41.5t-18.5 -140.5v-185q50 0 76.5 3t51.5 15.5t35 39t10 70.5v111q0 44 -5 70t-17.5 38.5t-26 16t-37.5 3.5z" />
    <glyph glyph-name="chi" unicode="&#x3c7;" horiz-adv-x="517" 
d="M430 468q8 0 17 -7.5t9 -17.5q0 -9 -7 -20l-159 -265l99 -221q11 -27 32 -43t43 -16q34 0 34 -25q0 -28 -34 -28q-37 0 -69 21t-47 57l-91 205l-159 -267q-9 -19 -25 -19q-8 0 -17.5 6t-9.5 19q0 10 7 20l177 297l-87 193q-11 26 -32 42t-43 16q-34 0 -34 25q0 28 34 28
q37 0 69 -21t47 -57l79 -178l141 237q12 19 26 19z" />
    <glyph glyph-name="psi" unicode="&#x3c8;" horiz-adv-x="590" 
d="M475 435q0 33 27 33q25 0 25 -32v-208q0 -102 -56.5 -164.5t-147.5 -70.5v-101q0 -32 -28 -32q-26 0 -26 32v101q-92 8 -149 70t-57 165v208q0 32 26 32t26 -33v-212q0 -82 40 -131t114 -57v526q0 33 27 33t27 -33v-525q73 7 112.5 56t39.5 131v212z" />
    <glyph glyph-name="omega" unicode="&#x3c9;" horiz-adv-x="666" 
d="M333 54q-39 -61 -121 -61q-68 0 -109 46.5t-41 107.5v165q0 64 31.5 110t97.5 46q36 0 36 -25q0 -27 -36 -27q-24 0 -41 -14t-24 -35t-9.5 -36t-2.5 -27v-149q0 -51 25 -80.5t60 -29.5q104 0 104 109v101q0 35 29 35q30 0 30 -35v-101q0 -109 104 -109q35 0 60 29.5
t25 80.5v149q0 12 -2.5 27t-9.5 36t-24 35t-41 14q-36 0 -36 27q0 25 36 25q66 0 97.5 -46t31.5 -110v-165q0 -61 -41 -107.5t-109 -46.5q-81 0 -120 61z" />
    <glyph glyph-name="iotadieresis" unicode="&#x3ca;" horiz-adv-x="228" 
d="M179 0h-7q-58 0 -79 28t-21 98v308q0 34 26 34t26 -34v-324q0 -32 11.5 -45t43.5 -13q35 0 35 -27q0 -25 -35 -25zM25 606q16 0 33.5 -12t17.5 -29t-17.5 -29t-33.5 -12q-17 0 -34 12t-17 29t17 29t34 12zM171 606q16 0 33.5 -12t17.5 -29t-17.5 -29t-33.5 -12
q-17 0 -34 12t-17 29t17 29t34 12z" />
    <glyph glyph-name="upsilondieresis" unicode="&#x3cb;" horiz-adv-x="603" 
d="M228 611q16 0 33.5 -12t17.5 -29t-17.5 -29t-33.5 -12q-17 0 -34 12t-17 29t17 29t34 12zM374 611q16 0 33.5 -12t17.5 -29t-17.5 -29t-33.5 -12q-17 0 -34 12t-17 29t17 29t34 12zM320 0h-28q-115 0 -169 35.5t-54 140.5v258q0 34 25 34q27 0 27 -34v-257q0 -81 36 -103
t135 -22h28q97 0 129 22t32 103v257q0 34 26 34t26 -34v-258q0 -106 -49.5 -141t-163.5 -35z" />
    <glyph glyph-name="omicrontonos" unicode="&#x3cc;" horiz-adv-x="598" 
d="M324 752q25 0 25 -27q0 -7 -1 -11l-45 -157q-7 -35 -25 -35q-12 0 -20 10t-8 26q0 6 2 12l44 157q8 25 28 25zM314 0h-29q-115 0 -169 35.5t-54 140.5v109q0 105 54 140.5t169 35.5h29q115 0 168.5 -35.5t53.5 -140.5v-109q0 -105 -53.5 -140.5t-168.5 -35.5zM285 52h29
q51 0 78.5 3.5t51 16t32 37.5t8.5 68v107q0 43 -8.5 68t-32 37.5t-51 16t-78.5 3.5h-29q-51 0 -78.5 -3.5t-51.5 -16t-32.5 -37.5t-8.5 -68v-107q0 -43 8.5 -68t32.5 -37.5t51.5 -16t78.5 -3.5z" />
    <glyph glyph-name="upsilontonos" unicode="&#x3cd;" horiz-adv-x="605" 
d="M326 759q25 0 25 -27q0 -7 -1 -11l-45 -157q-7 -35 -25 -35q-12 0 -20 10t-8 26q0 6 2 12l44 157q8 25 28 25zM321 0h-28q-115 0 -169 35.5t-54 140.5v258q0 34 25 34q27 0 27 -34v-257q0 -81 36 -103t135 -22h28q97 0 129 22t32 103v257q0 34 26 34t26 -34v-258
q0 -106 -49.5 -141t-163.5 -35z" />
    <glyph glyph-name="omegatonos" unicode="&#x3ce;" horiz-adv-x="666" 
d="M357 759q25 0 25 -27q0 -7 -1 -11l-45 -157q-7 -35 -25 -35q-12 0 -20 10t-8 26q0 6 2 12l44 157q8 25 28 25zM333 54q-39 -61 -121 -61q-68 0 -109 46.5t-41 107.5v165q0 64 31.5 110t97.5 46q36 0 36 -25q0 -27 -36 -27q-24 0 -41 -14t-24 -35t-9.5 -36t-2.5 -27v-149
q0 -51 25 -80.5t60 -29.5q104 0 104 109v101q0 35 29 35q30 0 30 -35v-101q0 -109 104 -109q35 0 60 29.5t25 80.5v149q0 12 -2.5 27t-9.5 36t-24 35t-41 14q-36 0 -36 27q0 25 36 25q66 0 97.5 -46t31.5 -110v-165q0 -61 -41 -107.5t-109 -46.5q-81 0 -120 61z" />
    <glyph glyph-name="uni0400" unicode="&#x400;" horiz-adv-x="598" 
d="M230 819q12 0 24 -13l70 -69q12 -14 12 -25q0 -8 -7 -16t-18 -8q-13 0 -25 13l-69 68q-13 15 -13 25q0 8 8 16.5t18 8.5zM136 332v-280h378q34 0 34 -28q0 -24 -34 -24h-406q-24 0 -24 36v564q0 36 24 36h406q34 0 34 -28q0 -24 -34 -24h-378v-200h259q36 0 36 -28
q0 -24 -36 -24h-259z" />
    <glyph glyph-name="Iocyrillic" unicode="&#x401;" horiz-adv-x="598" 
d="M239 784q16 0 33.5 -12t17.5 -29t-17.5 -29t-33.5 -12q-17 0 -34 12t-17 29t17 29t34 12zM385 784q16 0 33.5 -12t17.5 -29t-17.5 -29t-33.5 -12q-17 0 -34 12t-17 29t17 29t34 12zM136 332v-280h378q34 0 34 -28q0 -24 -34 -24h-406q-24 0 -24 36v564q0 36 24 36h406
q34 0 34 -28q0 -24 -34 -24h-378v-200h259q36 0 36 -28q0 -24 -36 -24h-259z" />
    <glyph glyph-name="Djecyrillic" unicode="&#x402;" horiz-adv-x="703" 
d="M417 636q34 0 34 -27q0 -25 -34 -25h-152v-181q60 63 166 63q109 0 161.5 -36t52.5 -142v-364q0 -43 -8 -70t-24 -39t-32.5 -16t-42.5 -4q-37 0 -37 26t37 26q32 0 43.5 13.5t11.5 46.5v380q0 82 -35 104.5t-127 22.5q-80 0 -123 -46t-43 -134v-206q0 -35 -27 -35
q-26 0 -26 34v557h-152q-33 0 -33 26t33 26h357z" />
    <glyph glyph-name="Gjecyrillic" unicode="&#x403;" horiz-adv-x="557" 
d="M394 770l-70 -69q-12 -13 -24 -13q-10 0 -18 7.5t-8 16.5q0 11 13 26l69 68q12 13 25 13q11 0 18 -8.5t7 -16.5q0 -10 -12 -24zM189 584q-32 0 -43.5 -13.5t-11.5 -45.5v-498q0 -34 -27 -34q-25 0 -25 34v482q0 70 21 98.5t79 28.5h315q35 0 35 -26t-35 -26h-308z" />
    <glyph glyph-name="Ie.ukran" unicode="&#x404;" horiz-adv-x="590" 
d="M436 636q32 0 53.5 -9.5t31 -27t12.5 -34.5t3 -40q0 -36 -26 -36t-26 33q0 34 -11.5 48t-43.5 14h-134q-99 0 -135 -22t-36 -103v-100h259q35 0 35 -24q0 -28 -35 -28h-259v-129q0 -81 36 -103.5t135 -22.5h134q31 0 43 13.5t12 48.5q0 33 26 33t26 -35q0 -24 -3 -41
t-12.5 -34.5t-31 -27t-53.5 -9.5h-141q-115 0 -169 35.5t-54 141.5v282q0 106 54 141.5t169 35.5h141z" />
    <glyph glyph-name="Dzecyrillic" unicode="&#x405;" horiz-adv-x="599" 
d="M113 481q0 -40 17.5 -68.5t42.5 -33.5l237 -51q67 -15 97 -62t30 -110q0 -67 -39.5 -115.5t-130.5 -48.5h-83q-57 0 -94 6.5t-68.5 25t-46 55t-14.5 93.5q0 33 28 33q25 0 25 -33q0 -83 35.5 -105.5t134.5 -22.5h102q53 0 76 36t23 77q0 49 -19.5 79.5t-40.5 35.5
l-235 52q-70 15 -99.5 52.5t-29.5 105.5q0 67 41 114.5t136 47.5h76q57 0 93.5 -6.5t68.5 -24.5t46.5 -54t14.5 -93q0 -33 -27 -33q-26 0 -26 33q0 83 -35 104.5t-135 21.5h-98q-54 0 -78.5 -35t-24.5 -76z" />
    <glyph glyph-name="Icyrillic" unicode="&#x406;" horiz-adv-x="220" 
d="M136 25q0 -32 -27 -32q-25 0 -25 32v585q0 33 26 33t26 -33v-585z" />
    <glyph glyph-name="Yicyrillic" unicode="&#x407;" horiz-adv-x="220" 
d="M38 784q16 0 33.5 -12t17.5 -29t-17.5 -29t-33.5 -12q-17 0 -34 12t-17 29t17 29t34 12zM184 784q16 0 33.5 -12t17.5 -29t-17.5 -29t-33.5 -12q-17 0 -34 12t-17 29t17 29t34 12zM136 25q0 -32 -27 -32q-25 0 -25 32v585q0 33 26 33t26 -33v-585z" />
    <glyph glyph-name="Jecyrillic" unicode="&#x408;" horiz-adv-x="550" 
d="M251 44q95 0 130.5 22.5t35.5 103.5v441q0 32 26 32t26 -33v-441q0 -56 -14.5 -92t-45 -54t-67 -24.5t-91.5 -6.5t-91.5 6.5t-67.5 25t-45.5 55t-14.5 93.5q0 33 28 33q25 0 25 -33q0 -83 35 -105.5t131 -22.5z" />
    <glyph glyph-name="Ljecyrillic" unicode="&#x409;" horiz-adv-x="883" 
d="M489 354v-309h143q81 0 122 42t41 113q0 69 -41.5 111.5t-122.5 42.5h-142zM489 406h142q98 0 157 -56.5t59 -149.5t-58.5 -150t-156.5 -57h-168q-27 0 -27 35v556h-208q-36 0 -50.5 -14t-14.5 -45v-398q0 -79 -27 -103t-80 -24q-36 0 -36 27q0 24 36 24q32 0 43.5 13
t11.5 45v400q0 70 22.5 98.5t87.5 28.5h267v-230z" />
    <glyph glyph-name="Njecyrillic" unicode="&#x40a;" horiz-adv-x="932" 
d="M543 354v-309h139q80 0 121 42t41 113q0 69 -41 111.5t-121 42.5h-139zM543 406h139q97 0 155.5 -57t58.5 -149q0 -93 -58.5 -150t-155.5 -57h-165q-26 0 -26 36v325h-355v-326q0 -35 -26 -35t-26 34v581q0 35 24 35q28 0 28 -35v-202h355v202q0 35 25 35q27 0 27 -35
v-202z" />
    <glyph glyph-name="Tshecyrillic" unicode="&#x40b;" horiz-adv-x="703" 
d="M417 584h-152v-181q60 63 166 63q109 0 161.5 -36t52.5 -142v-260q0 -35 -25 -35q-27 0 -27 35v260q0 81 -35 103.5t-127 22.5q-80 0 -123 -46t-43 -134v-206q0 -35 -27 -35q-26 0 -26 34v557h-152q-33 0 -33 26t33 26h357q34 0 34 -27q0 -25 -34 -25z" />
    <glyph glyph-name="Kjecyrillic" unicode="&#x40c;" horiz-adv-x="574" 
d="M379 719l-96 -115q-13 -15 -25 -15q-8 0 -16.5 7.5t-8.5 17.5q0 12 9 23l96 115q14 15 25 15q9 0 17 -7.5t8 -18.5t-9 -22zM226 270h-90v-246q0 -31 -27 -31q-25 0 -25 32v545q0 33 26 33t26 -33v-248h93q20 0 44 29t48.5 70.5t50.5 83t59.5 70.5t66.5 29q36 0 36 -26
t-36 -26q-25 0 -51.5 -31t-47.5 -71t-51 -86.5t-57 -68.5q36 -30 75.5 -95t71 -110t60.5 -45q36 0 36 -26t-36 -26q-34 0 -67 28.5t-59 69.5t-50.5 81.5t-49 69t-46.5 28.5z" />
    <glyph glyph-name="Iicyrillic_grave" unicode="&#x40d;" horiz-adv-x="632" 
d="M235 809q12 0 25 -15l96 -115q9 -11 9 -23q0 -11 -8 -18t-17 -7q-11 0 -25 15l-96 115q-9 11 -9 22t8 18.5t17 7.5zM109 -7q-25 0 -25 34v581q0 35 27 35q25 0 25 -36v-511l358 528q12 19 30 19q24 0 24 -35v-581q0 -34 -26 -34t-26 33v517l-367 -543q-6 -7 -20 -7z" />
    <glyph glyph-name="Ushortcyrillic" unicode="&#x40e;" horiz-adv-x="527" 
d="M271 213l183 402q9 21 28 21q9 0 16.5 -6.5t7.5 -16.5q0 -5 -3 -13l-256 -558q-10 -22 -33 -35t-52 -13q-32 0 -53.5 9.5t-31 27.5t-12.5 35t-3 40q0 35 26 35t26 -33q0 -36 10.5 -49t36.5 -13q27 0 40 28l37 77l-192 448q-4 9 -4 16q0 21 24 21q18 0 28 -22zM423 748
q0 -65 -19 -91t-72 -26h-117q-53 0 -72 26.5t-19 90.5v27h52v-43q0 -29 9.5 -39t37.5 -10h102q28 0 37 9.5t9 39.5v43h52v-27z" />
    <glyph glyph-name="Dzhecyrillic" unicode="&#x40f;" horiz-adv-x="626" 
d="M286 -57v57h-200v576q0 35 25 35q27 0 27 -35v-524h350v524q0 35 26 35t26 -35v-576h-200v-57q0 -35 -27 -35t-27 35z" />
    <glyph glyph-name="Acyrillic" unicode="&#x410;" horiz-adv-x="570" 
d="M316 636l227 -611q3 -9 3 -16q0 -13 -9 -19t-17 -6q-17 0 -27 23l-71 192h-274l-71 -192q-10 -23 -27 -23q-8 0 -17 6t-9 19q0 7 3 16l227 611h62zM284 560l-116 -309h234z" />
    <glyph glyph-name="Becyrillic" unicode="&#x411;" horiz-adv-x="555" 
d="M439 636q35 0 35 -26t-35 -26h-302v-118h153q96 0 156.5 -70t60.5 -166q0 -97 -60.5 -167t-156.5 -70h-181q-24 0 -24 35v608h354zM290 414h-153v-369h153q79 0 122 55t43 130q0 74 -43 129t-122 55z" />
    <glyph glyph-name="Vecyrillic" unicode="&#x412;" horiz-adv-x="605" 
d="M136 332v-280h190q98 0 134 22.5t36 103.5v28q0 81 -35 103.5t-129 22.5h-196zM84 36v564q0 36 24 36h180q111 0 164.5 -31t53.5 -119q0 -76 -49 -112q46 -17 68.5 -55.5t22.5 -109.5v-29q0 -108 -53.5 -144t-168.5 -36h-218q-24 0 -24 36zM288 384q92 0 129 19t37 78
q0 63 -36.5 80.5t-129.5 17.5h-152v-195h152z" />
    <glyph glyph-name="Gecyrillic" unicode="&#x413;" horiz-adv-x="557" 
d="M189 584q-32 0 -43.5 -13.5t-11.5 -45.5v-498q0 -34 -27 -34q-25 0 -25 34v482q0 70 21 98.5t79 28.5h315q35 0 35 -26t-35 -26h-308z" />
    <glyph glyph-name="Decyrillic" unicode="&#x414;" horiz-adv-x="572" 
d="M64 -57q0 -35 -26 -35t-26 35v52q0 57 51 57h10q30 54 65 243.5t35 340.5h299v-584h9q51 0 51 -57v-52q0 -35 -26 -35t-26 35v57h-416v-57zM420 52v532h-194q-1 -123 -33.5 -297.5t-62.5 -234.5h290z" />
    <glyph glyph-name="Iecyrillic" unicode="&#x415;" horiz-adv-x="598" 
d="M136 332v-280h378q34 0 34 -28q0 -24 -34 -24h-406q-24 0 -24 36v564q0 36 24 36h406q34 0 34 -28q0 -24 -34 -24h-378v-200h259q36 0 36 -28q0 -24 -36 -24h-259z" />
    <glyph glyph-name="Zhecyrillic" unicode="&#x416;" horiz-adv-x="774" 
d="M699 -7q-44 0 -70 28.5t-38 69.5t-25.5 81.5t-45 69t-84.5 28.5h-22v-246q0 -31 -28 -31q-26 0 -26 31v246h-22q-39 0 -67 -15.5t-42.5 -39.5t-24.5 -53.5t-19 -59.5t-21 -54t-34 -39.5t-55 -15.5q-36 0 -36 26t36 26q17 0 28.5 22t21.5 56t23.5 70.5t42 69t70.5 47.5
q-27 29 -61.5 92.5t-64 106t-60.5 43.5q-36 2 -36 26q0 26 36 26q34 0 67 -29t59 -70.5t49 -83t46.5 -70.5t42.5 -29h21v248q0 33 27 33t27 -33v-248h21q20 0 43.5 29t47 70.5t49.5 83t58.5 70.5t65.5 29q36 0 36 -26q0 -24 -36 -26q-31 -2 -61 -43.5t-64 -105t-61 -92.5
q52 -18 84.5 -63.5t42.5 -89.5t24 -78.5t35 -34.5q36 0 36 -26t-36 -26z" />
    <glyph glyph-name="Zecyrillic" unicode="&#x417;" horiz-adv-x="584" 
d="M264 354h86q52 0 85 32t33 83q0 39 -33.5 77t-88.5 38h-183q-32 0 -43.5 -13t-11.5 -46v-18q0 -35 -27 -35q-25 0 -25 35q0 71 21 100t79 29h197q73 0 120 -47.5t47 -118.5q0 -96 -75 -143q35 -25 55 -64.5t20 -86.5q0 -72 -47.5 -124t-119.5 -52h-197q-58 0 -79 29
t-21 100q0 35 25 35q27 0 27 -35v-18q0 -33 11.5 -46t43.5 -13h183q55 0 88.5 42.5t33.5 82.5q0 52 -33.5 88.5t-84.5 36.5h-86q-36 0 -36 26t36 26z" />
    <glyph glyph-name="Iicyrillic" unicode="&#x418;" horiz-adv-x="632" 
d="M109 -7q-25 0 -25 34v581q0 35 27 35q25 0 25 -36v-511l358 528q12 19 30 19q24 0 24 -35v-581q0 -34 -26 -34t-26 33v517l-367 -543q-6 -7 -20 -7z" />
    <glyph glyph-name="Iishortcyrillic" unicode="&#x419;" horiz-adv-x="632" 
d="M464 748q0 -65 -19 -91t-72 -26h-117q-53 0 -72 26.5t-19 90.5v27h52v-43q0 -29 9.5 -39t37.5 -10h102q28 0 37 9.5t9 39.5v43h52v-27zM109 -7q-25 0 -25 34v581q0 35 27 35q25 0 25 -36v-511l358 528q12 19 30 19q24 0 24 -35v-581q0 -34 -26 -34t-26 33v517l-367 -543
q-6 -7 -20 -7z" />
    <glyph glyph-name="Kacyrillic" unicode="&#x41a;" horiz-adv-x="574" 
d="M226 270h-90v-246q0 -31 -27 -31q-25 0 -25 32v545q0 33 26 33t26 -33v-248h93q20 0 44 29t48.5 70.5t50.5 83t59.5 70.5t66.5 29q36 0 36 -26t-36 -26q-25 0 -51.5 -31t-47.5 -71t-51 -86.5t-57 -68.5q36 -30 75.5 -95t71 -110t60.5 -45q36 0 36 -26t-36 -26
q-34 0 -67 28.5t-59 69.5t-50.5 81.5t-49 69t-46.5 28.5z" />
    <glyph glyph-name="Elcyrillic" unicode="&#x41b;" horiz-adv-x="574" 
d="M489 28q0 -35 -27 -35q-25 0 -25 35v556h-208q-36 0 -49 -13.5t-13 -45.5v-398q0 -78 -28 -102.5t-82 -24.5q-36 0 -36 27q0 25 36 25q32 0 43.5 13t11.5 45v399q0 70 22.5 98.5t87.5 28.5h267v-608z" />
    <glyph glyph-name="Emcyrillic" unicode="&#x41c;" horiz-adv-x="653" 
d="M326 279q-11 0 -17 8l-173 258v-517q0 -35 -26 -35t-26 34v581q0 35 24 35q18 0 30 -19l188 -278l189 278q13 19 29 19q25 0 25 -35v-581q0 -34 -27 -34q-25 0 -25 35v517l-173 -258q-6 -8 -18 -8z" />
    <glyph glyph-name="Encyrillic" unicode="&#x41d;" horiz-adv-x="632" 
d="M136 27q0 -34 -26 -34t-26 34v581q0 35 24 35q28 0 28 -35v-239h360v239q0 35 25 35q27 0 27 -35v-581q0 -34 -25 -34q-27 0 -27 34v290h-360v-290z" />
    <glyph glyph-name="Ocyrillic" unicode="&#x41e;" horiz-adv-x="594" 
d="M297 -9q-102 0 -167 63t-65 174v180q0 111 65 174t167 63t167 -63.5t65 -173.5v-180q0 -110 -65 -173.5t-167 -63.5zM297 593q-86 0 -133 -49t-47 -137v-178q0 -88 47 -137t133 -49t133 49t47 137v178q0 88 -47 137t-133 49z" />
    <glyph glyph-name="Pecyrillic" unicode="&#x41f;" horiz-adv-x="624" 
d="M85 636h454v-609q0 -34 -25 -34q-27 0 -27 34v557h-350v-557q0 -34 -26 -34t-26 34v609z" />
    <glyph glyph-name="Ercyrillic" unicode="&#x420;" horiz-adv-x="540" 
d="M136 25q0 -32 -27 -32q-25 0 -25 32v575q0 36 24 36h181q108 0 162.5 -33t54.5 -122q0 -75 -45.5 -114.5t-127.5 -39.5h-197v-302zM289 379q92 0 128.5 20t36.5 82q0 64 -37 83.5t-128 19.5h-153v-205h153z" />
    <glyph glyph-name="Escyrillic" unicode="&#x421;" 
d="M436 0h-141q-116 0 -169.5 36t-53.5 144v276q0 108 53 144t164 36h147q32 0 53.5 -9.5t31 -27t12.5 -34.5t3 -41q0 -35 -26 -35t-26 33q0 35 -12 48.5t-43 13.5h-140q-48 0 -75 -3.5t-50 -16.5t-31.5 -39t-8.5 -69v-276q0 -83 36 -105.5t135 -22.5h134q32 0 43.5 14
t11.5 48q0 33 26 33t26 -36q0 -23 -3 -40t-12.5 -34.5t-31 -27t-53.5 -9.5z" />
    <glyph glyph-name="Tecyrillic" unicode="&#x422;" horiz-adv-x="481" 
d="M421 636q33 0 33 -27q0 -25 -33 -25h-152v-559q0 -32 -29 -32q-26 0 -26 32v559h-154q-33 0 -33 26t33 26h361z" />
    <glyph glyph-name="Ucyrillic" unicode="&#x423;" horiz-adv-x="527" 
d="M271 213l183 402q9 21 28 21q9 0 16.5 -6.5t7.5 -16.5q0 -5 -3 -13l-256 -558q-10 -22 -33 -35t-52 -13q-32 0 -53.5 9.5t-31 27.5t-12.5 35t-3 40q0 35 26 35t26 -33q0 -36 10.5 -49t36.5 -13q27 0 40 28l37 77l-192 448q-4 9 -4 16q0 21 24 21q18 0 28 -22z" />
    <glyph glyph-name="Efcyrillic" unicode="&#x424;" horiz-adv-x="548" 
d="M303 25q0 -32 -28 -32q-26 0 -26 32v51q-93 8 -150 70t-57 166v12q0 104 57 166t150 70v50q0 33 27 33t27 -33v-50q91 -9 147 -71t56 -165v-12q0 -103 -56 -165t-147 -71v-51zM303 511v-386q72 7 111.5 56.5t39.5 130.5v12q0 80 -39.5 129.5t-111.5 57.5zM94 312
q0 -83 40.5 -132t114.5 -56v388q-74 -7 -114.5 -56.5t-40.5 -131.5v-12z" />
    <glyph glyph-name="Khacyrillic" unicode="&#x425;" horiz-adv-x="559" 
d="M497 643q8 0 17 -6t9 -20q0 -12 -8 -21l-203 -279l203 -278q8 -11 8 -22t-8.5 -17.5t-17.5 -6.5q-13 0 -25 16l-193 268l-192 -268q-12 -16 -26 -16q-9 0 -17 7t-8 17q0 11 8 22l203 278l-203 279q-8 9 -8 21q0 14 9 20t16 6q13 0 26 -18l192 -267l193 267q14 18 25 18z
" />
    <glyph glyph-name="Tsecyrillic" unicode="&#x426;" horiz-adv-x="582" 
d="M540 -57q0 -35 -26 -35t-26 35v57h-402v576q0 35 25 35q27 0 27 -35v-524h292v524q0 35 26 35t26 -35v-524h7q51 0 51 -57v-52z" />
    <glyph glyph-name="Checyrillic" unicode="&#x427;" horiz-adv-x="605" 
d="M304 222q81 0 123 46t42 134v206q0 35 26 35t26 -34v-581q0 -35 -24 -35q-28 0 -28 35v205q-59 -63 -165 -63h-31q-54 0 -90 6.5t-66.5 25t-45 54.5t-14.5 92v260q0 35 25 35q27 0 27 -35v-260q0 -81 35 -103.5t129 -22.5h31z" />
    <glyph glyph-name="Shacyrillic" unicode="&#x428;" horiz-adv-x="698" 
d="M86 0v576q0 35 25 35q27 0 27 -35v-524h185v524q0 35 25 35q27 0 27 -35v-524h185v524q0 35 26 35t26 -35v-576h-526z" />
    <glyph glyph-name="Shchacyrillic" unicode="&#x429;" horiz-adv-x="712" 
d="M322 576q0 35 25 35q27 0 27 -35v-524h186v524q0 35 26 35t26 -35v-524h7q51 0 51 -57v-52q0 -35 -26 -35t-26 35v57h-532v576q0 35 25 35q27 0 27 -35v-524h184v524z" />
    <glyph glyph-name="Hardsigncyrillic" unicode="&#x42a;" horiz-adv-x="617" 
d="M157 584h-96q-36 0 -36 28q0 24 36 24h148v-170h154q95 0 155.5 -70t60.5 -166q0 -97 -60 -167t-155 -70h-182q-25 0 -25 35v556zM363 414h-154v-369h155q78 0 120.5 55t42.5 130q0 73 -43 128.5t-121 55.5z" />
    <glyph glyph-name="Yericyrillic" unicode="&#x42b;" horiz-adv-x="673" 
d="M589 25q0 -32 -27 -32q-25 0 -25 32v585q0 33 26 33t26 -33v-585zM289 466q96 0 156.5 -70t60.5 -166q0 -97 -60.5 -167t-156.5 -70h-181q-24 0 -24 35v576q0 32 25 32q27 0 27 -31v-139h153zM289 414h-153v-369h153q79 0 122 55t43 130q0 74 -43 129t-122 55z" />
    <glyph glyph-name="Softsigncyrillic" unicode="&#x42c;" horiz-adv-x="544" 
d="M289 466q96 0 156.5 -70t60.5 -166q0 -97 -60.5 -167t-156.5 -70h-181q-24 0 -24 35v576q0 32 25 32q27 0 27 -31v-139h153zM289 414h-153v-369h153q79 0 122 55t43 130q0 74 -43 129t-122 55z" />
    <glyph glyph-name="Ereversedcyrillic" unicode="&#x42d;" horiz-adv-x="590" 
d="M154 636h141q115 0 169 -35.5t54 -141.5v-282q0 -106 -54 -141.5t-169 -35.5h-141q-32 0 -53.5 9.5t-31 27t-12.5 34.5t-3 41q0 35 26 35t26 -33q0 -35 12 -48.5t43 -13.5h134q99 0 135 22.5t36 103.5v129h-259q-35 0 -35 28q0 24 35 24h259v100q0 81 -36 103t-135 22
h-134q-32 0 -43.5 -14t-11.5 -48q0 -33 -26 -33t-26 36q0 23 3 40t12.5 34.5t31 27t53.5 9.5z" />
    <glyph glyph-name="IUcyrillic" unicode="&#x42e;" horiz-adv-x="720" 
d="M425 593q-85 0 -133 -49.5t-48 -136.5v-178q0 -88 48 -137t133 -49t131.5 49t46.5 137v178q0 87 -47 136.5t-131 49.5zM425 -9q-103 0 -168 63t-65 174v69h-56v-273q0 -31 -27 -31q-25 0 -25 32v585q0 33 26 33t26 -32v-262h56v59q0 111 65 174t168 63q101 0 165.5 -63.5
t64.5 -173.5v-180q0 -110 -64.5 -173.5t-165.5 -63.5z" />
    <glyph glyph-name="IAcyrillic" unicode="&#x42f;" horiz-adv-x="585" 
d="M138 467q0 -66 39.5 -93.5t125.5 -27.5h146v243h-146q-87 0 -126 -28.5t-39 -93.5zM202 311q-116 34 -116 161q0 174 217 174h174q24 0 24 -36v-585q0 -32 -25 -32q-27 0 -27 32v274h-135q-52 0 -79 -20t-38 -61l-28 -104q-14 -54 -48.5 -87.5t-77.5 -33.5q-36 0 -36 26
t36 26q25 0 45 22t26 43l31 114q14 55 57 87z" />
    <glyph glyph-name="acyrillic" unicode="&#x430;" horiz-adv-x="554" 
d="M283 243q-51 0 -78.5 -3.5t-51.5 -16t-32.5 -37.5t-8.5 -68q0 -26 17 -46t38 -20h93q84 0 127 45.5t43 130.5v15h-147zM283 295h147v57q0 31 -11.5 44t-43.5 13h-141q-122 0 -122 -60q0 -35 -27 -35q-25 0 -25 35q0 58 46 85t121 27h155q58 0 79 -28t21 -98v-308
q0 -34 -26 -34t-26 35v35q-57 -63 -170 -63h-93q-47 0 -77 33.5t-30 89.5q0 101 54.5 136.5t168.5 35.5z" />
    <glyph glyph-name="becyrillic" unicode="&#x431;" horiz-adv-x="607" 
d="M329 409h-206v-232q0 -43 8.5 -68t32 -37.5t51 -16t78.5 -3.5h30q51 0 78.5 3.5t51 16t32 37.5t8.5 68v107q0 81 -35 103t-129 22zM124 461h205q110 0 163 -35.5t53 -140.5v-109q0 -105 -53.5 -140.5t-168.5 -35.5h-30q-115 0 -168.5 35.5t-53.5 141.5v278
q0 50 16.5 83.5t43.5 53t80 29.5t105.5 12.5t140.5 2.5q36 0 36 -28q0 -24 -36 -24q-73 0 -110 -1t-82.5 -4.5t-65.5 -11t-40.5 -21.5t-27 -34.5t-7.5 -50.5z" />
    <glyph glyph-name="vecyrillic" unicode="&#x432;" horiz-adv-x="602" 
d="M75 461h305q67 0 113 -30.5t46 -95.5q0 -72 -59 -98q59 -37 59 -111q0 -65 -46 -95.5t-113 -30.5h-305v461zM127 212v-160h246q48 0 81 16.5t33 51.5q0 51 -28 71.5t-82 20.5h-250zM127 409v-145h250q61 0 86 15t25 62q0 31 -29.5 49.5t-85.5 18.5h-246z" />
    <glyph glyph-name="gecyrillic" unicode="&#x433;" horiz-adv-x="479" 
d="M180 409q-32 0 -43.5 -13t-11.5 -46v-323q0 -34 -27 -34q-25 0 -25 34v308q0 70 21 98t79 28h254q35 0 35 -26t-35 -26h-247z" />
    <glyph glyph-name="decyrillic" unicode="&#x434;" horiz-adv-x="559" 
d="M65 -57q0 -35 -26 -35t-26 35v52q0 57 51 57h10q100 168 100 409h265v-409h43q51 0 51 -57v-52q0 -35 -26 -35t-26 35v57h-416v-57zM386 52v357h-159q-1 -195 -95 -357h254z" />
    <glyph glyph-name="iecyrillic" unicode="&#x435;" 
d="M536 285v-40h-422v-68q0 -43 8.5 -68t32.5 -37.5t51.5 -16t78.5 -3.5h134q32 0 43.5 14t11.5 48q0 33 26 33t26 -36q0 -23 -3 -40t-12.5 -34.5t-31 -27t-53.5 -9.5h-141q-115 0 -169 35.5t-54 140.5v109q0 105 54 140.5t169 35.5h29q115 0 168.5 -35.5t53.5 -140.5z
M314 409h-29q-97 0 -133.5 -20.5t-37.5 -91.5h370q-1 71 -37.5 91.5t-132.5 20.5z" />
    <glyph glyph-name="zhecyrillic" unicode="&#x436;" horiz-adv-x="718" 
d="M642 -7q-40 0 -59.5 22t-27.5 53.5t-20 63.5t-48.5 54.5t-100.5 23.5v-185q0 -32 -28 -32q-26 0 -26 32v185q-48 -1 -80.5 -13t-48 -31.5t-24.5 -42.5t-15 -46t-14 -41.5t-26.5 -30.5t-47.5 -12q-36 0 -36 26t36 26q20 0 30.5 23t16 53t29.5 64t67 52q-18 21 -38.5 70
t-43.5 79.5t-61 30.5q-36 0 -36 26t36 26q45 0 77 -22t48 -53t28 -62t25.5 -53t31.5 -22h46v179q0 32 27 32t27 -32v-179h46q18 0 32 22t26 53t28.5 62t48 53t75.5 22q36 0 36 -26t-36 -26q-38 0 -61.5 -30t-44.5 -79.5t-38 -69.5q44 -17 68.5 -51.5t29.5 -64.5t15.5 -53.5
t30.5 -23.5q36 0 36 -26t-36 -26z" />
    <glyph glyph-name="zecyrillic" unicode="&#x437;" horiz-adv-x="585" 
d="M266 212q-36 0 -36 24q0 28 36 28h86q65 0 92 17.5t27 65.5q0 62 -123 62h-183q-32 0 -43.5 -13t-11.5 -46v-18q0 -35 -27 -35q-25 0 -25 35q0 71 21 100t79 29h197q72 0 119.5 -30t47.5 -96q0 -72 -59 -98q59 -37 59 -111q0 -66 -47.5 -96t-119.5 -30h-197q-58 0 -79 29
t-21 100q0 35 25 35q27 0 27 -35v-18q0 -33 11.5 -46t43.5 -13h183q122 0 122 62q0 98 -118 98h-86z" />
    <glyph glyph-name="iicyrillic" unicode="&#x438;" horiz-adv-x="604" 
d="M529 461v-433q0 -35 -25 -35q-27 0 -27 36v365l-346 -394h-56v433q0 35 25 35q27 0 27 -36v-369l349 398h53z" />
    <glyph glyph-name="iishortcyrillic" unicode="&#x439;" horiz-adv-x="604" 
d="M457 614q0 -65 -19 -91t-72 -26h-117q-53 0 -72 26.5t-19 90.5v27h52v-43q0 -29 9.5 -39t37.5 -10h102q28 0 37 9.5t9 39.5v43h52v-27zM529 461v-433q0 -35 -25 -35q-27 0 -27 36v365l-346 -394h-56v433q0 35 25 35q27 0 27 -36v-369l349 398h53z" />
    <glyph glyph-name="kacyrillic" unicode="&#x43a;" horiz-adv-x="562" 
d="M126 257h108q19 0 37.5 22t37 53t41.5 62t59 53t80 22q36 0 36 -26t-36 -26q-38 0 -68 -30.5t-61 -80t-53 -69.5q48 -18 79.5 -52t42 -64t25.5 -53t35 -23q36 0 36 -26t-36 -26q-40 0 -64.5 22t-38.5 53t-32.5 62t-61 53t-110.5 22h-56v-181q0 -31 -27 -31q-25 0 -25 31
v412q0 32 26 32t26 -32v-179z" />
    <glyph glyph-name="elcyrillic" unicode="&#x43b;" horiz-adv-x="569" 
d="M494 29q0 -36 -27 -36q-25 0 -25 35v381h-214q-34 0 -46 -13t-12 -46v-224q0 -78 -27 -102t-81 -24q-36 0 -36 27q0 25 36 25q32 0 43.5 13t11.5 45v225q0 70 21.5 98t81.5 28h274v-432z" />
    <glyph glyph-name="emcyrillic" unicode="&#x43c;" horiz-adv-x="633" 
d="M316 104q-11 0 -17 8l-173 258v-342q0 -35 -26 -35t-26 34v406q0 35 24 35q18 0 30 -19l188 -278l189 278q13 19 29 19q25 0 25 -35v-406q0 -34 -27 -34q-25 0 -25 35v342l-173 -258q-5 -8 -18 -8z" />
    <glyph glyph-name="encyrillic" unicode="&#x43d;" horiz-adv-x="603" 
d="M126 27q0 -34 -26 -34t-26 34v406q0 35 24 35q28 0 28 -35v-163h350v163q0 35 25 35q27 0 27 -35v-406q0 -34 -25 -34q-27 0 -27 34v191h-350v-191z" />
    <glyph glyph-name="ocyrillic" unicode="&#x43e;" horiz-adv-x="598" 
d="M314 0h-29q-115 0 -169 35.5t-54 140.5v109q0 105 54 140.5t169 35.5h29q115 0 168.5 -35.5t53.5 -140.5v-109q0 -105 -53.5 -140.5t-168.5 -35.5zM285 52h29q51 0 78.5 3.5t51 16t32 37.5t8.5 68v107q0 43 -8.5 68t-32 37.5t-51 16t-78.5 3.5h-29q-51 0 -78.5 -3.5
t-51.5 -16t-32.5 -37.5t-8.5 -68v-107q0 -43 8.5 -68t32.5 -37.5t51.5 -16t78.5 -3.5z" />
    <glyph glyph-name="pecyrillic" unicode="&#x43f;" horiz-adv-x="604" 
d="M75 461h454v-434q0 -34 -25 -34q-27 0 -27 34v382h-350v-382q0 -34 -26 -34t-26 34v434z" />
    <glyph glyph-name="ercyrillic" unicode="&#x440;" horiz-adv-x="611" 
d="M497 284q0 43 -8.5 68t-32 37.5t-51 16t-78.5 3.5h-29q-171 0 -171 -177v-180h201q98 0 133.5 22t35.5 103v107zM549 176q0 -105 -53.5 -140.5t-167.5 -35.5h-201v-147q0 -35 -28 -35q-24 0 -24 35v581q0 34 26 34t26 -35v-35q59 63 171 63h29q115 0 168.5 -35.5
t53.5 -140.5v-109z" />
    <glyph glyph-name="escyrillic" unicode="&#x441;" horiz-adv-x="584" 
d="M426 0h-141q-115 0 -169 35.5t-54 140.5v109q0 105 54 140.5t169 35.5h141q32 0 53.5 -9.5t31 -27.5t12.5 -35t3 -40q0 -35 -26 -35t-26 33q0 35 -12 48.5t-43 13.5h-134q-51 0 -78.5 -3.5t-51.5 -16t-32.5 -37.5t-8.5 -68v-107q0 -43 8.5 -68t32.5 -37.5t51.5 -16
t78.5 -3.5h134q32 0 43.5 14t11.5 48q0 33 26 33t26 -36q0 -23 -3 -40t-12.5 -34.5t-31 -27t-53.5 -9.5z" />
    <glyph glyph-name="tecyrillic" unicode="&#x442;" horiz-adv-x="460" 
d="M410 461q33 0 33 -27q0 -25 -33 -25h-152v-385q0 -31 -29 -31q-26 0 -26 31v385h-154q-33 0 -33 26t33 26h361z" />
    <glyph glyph-name="ucyrillic" unicode="&#x443;" horiz-adv-x="619" 
d="M544 -87q0 -65 -19 -91.5t-72 -26.5h-283q-32 0 -53.5 9.5t-31 27.5t-12.5 35t-3 40q0 35 26 35t26 -33q0 -35 12 -48.5t43 -13.5h269q29 0 37.5 10t8.5 40v166q-59 -63 -171 -63h-29q-115 0 -168.5 35.5t-53.5 140.5v258q0 34 25 34q27 0 27 -34v-257q0 -43 8.5 -68
t32 -37.5t51 -16t78.5 -3.5h29q85 0 128 45.5t43 132.5v204q0 34 26 34t26 -34v-521z" />
    <glyph glyph-name="efcyrillic" unicode="&#x444;" horiz-adv-x="768" 
d="M656 196v69q0 30 -3 50.5t-13.5 44.5t-35 36.5t-63.5 12.5q-49 0 -79.5 -29t-40.5 -66.5t-10 -82.5q0 -46 10 -83t40.5 -66.5t79.5 -29.5q39 0 63.5 12.5t35 36.5t13.5 44.5t3 50.5zM112 196q0 -30 3 -50.5t13.5 -44.5t35 -36.5t63.5 -12.5q49 0 79.5 29.5t40.5 66.5
t10 83q0 45 -10 82.5t-40.5 66.5t-79.5 29q-39 0 -63.5 -12.5t-35 -36.5t-13.5 -44.5t-3 -50.5v-69zM411 -147q0 -35 -27 -35t-27 35v209q-28 -33 -56.5 -47.5t-73.5 -14.5q-167 0 -167 196v69q0 196 167 196q45 0 73.5 -14.5t56.5 -47.5v209q0 35 27 35t27 -35v-209
q28 33 56.5 47.5t73.5 14.5q167 0 167 -196v-69q0 -196 -167 -196q-45 0 -73.5 14.5t-56.5 47.5v-209z" />
    <glyph glyph-name="khacyrillic" unicode="&#x445;" horiz-adv-x="512" 
d="M472 12q0 -10 -8 -16.5t-17 -6.5q-12 0 -24 12l-166 193l-167 -193q-14 -12 -25 -12q-9 0 -17 6.5t-8 16.5q0 4 10 24l171 194l-171 195q-10 12 -10 23q0 10 8 17t17 7q11 0 25 -12l167 -193l166 193q12 12 24 12q9 0 17 -7t8 -17q0 -11 -10 -23l-171 -195l171 -194
q10 -15 10 -24z" />
    <glyph glyph-name="tsecyrillic" unicode="&#x446;" horiz-adv-x="563" 
d="M529 -57q0 -35 -26 -35t-26 35v57h-402v434q0 34 25 34q27 0 27 -34v-382h292v382q0 34 26 34t26 -34v-382h7q51 0 51 -57v-52z" />
    <glyph glyph-name="checyrillic" unicode="&#x447;" horiz-adv-x="589" 
d="M297 180q81 0 123 46t42 133v75q0 34 26 34t26 -34v-406q0 -35 -24 -35q-28 0 -28 35v163q-59 -63 -165 -63h-31q-110 0 -163 35.5t-53 141.5v129q0 34 25 34q27 0 27 -34v-128q0 -81 35 -103.5t129 -22.5h31z" />
    <glyph glyph-name="shacyrillic" unicode="&#x448;" horiz-adv-x="636" 
d="M75 0v434q0 34 25 34q27 0 27 -34v-382h165v382q0 34 25 34q27 0 27 -34v-382h165v382q0 34 26 34t26 -34v-434h-486z" />
    <glyph glyph-name="shchacyrillic" unicode="&#x449;" horiz-adv-x="653" 
d="M291 434q0 34 25 34q27 0 27 -34v-382h166v382q0 34 26 34t26 -34v-382h7q51 0 51 -57v-52q0 -35 -26 -35t-26 35v57h-492v434q0 34 25 34q27 0 27 -34v-382h164v382z" />
    <glyph glyph-name="hardsigncyrillic" unicode="&#x44a;" horiz-adv-x="589" 
d="M380 52q41 0 68 8.5t37.5 23t13.5 25t3 23.5q0 16 -3 26.5t-13.5 24.5t-37.5 21.5t-68 7.5h-169v-160h169zM159 0v409h-96q-36 0 -36 28q0 24 36 24h148v-197h174q67 0 118 -30.5t51 -101.5q0 -72 -47.5 -102t-119.5 -30h-228z" />
    <glyph glyph-name="yericyrillic" unicode="&#x44b;" horiz-adv-x="667" 
d="M566 -12q-25 0 -25 32v420q0 33 26 33t26 -33v-420q0 -32 -27 -32zM335 52q39 0 64 8.5t34.5 23t12.5 25t3 23.5q0 16 -3 27t-13 24.5t-34.5 21t-63.5 7.5h-208v-160h208zM75 0v433q0 35 25 35q27 0 27 -35v-169h215q66 0 112.5 -30t46.5 -102t-46.5 -102t-112.5 -30
h-267z" />
    <glyph glyph-name="softsigncyrillic" unicode="&#x44c;" horiz-adv-x="536" 
d="M335 52q39 0 64 8.5t34.5 23t12.5 25t3 23.5q0 16 -3 27t-13 24.5t-34.5 21t-63.5 7.5h-208v-160h208zM75 0v433q0 35 25 35q27 0 27 -35v-169h215q66 0 112.5 -30t46.5 -102t-46.5 -102t-112.5 -30h-267z" />
    <glyph glyph-name="ereversedcyrillic" unicode="&#x44d;" horiz-adv-x="583" 
d="M157 461h141q115 0 169 -35.5t54 -140.5v-109q0 -105 -54 -140.5t-169 -35.5h-141q-32 0 -53.5 9.5t-31 27.5t-12.5 35t-3 40q0 35 26 35t26 -33q0 -35 12 -48.5t43 -13.5h134q41 0 65 2t47 9t34.5 20.5t18 36t6.5 56.5v36h-204q-36 0 -36 24q0 28 36 28h204v21
q0 34 -6.5 56.5t-18 36t-34.5 20.5t-47 9t-65 2h-134q-32 0 -43.5 -14t-11.5 -48q0 -33 -26 -33t-26 36q0 23 3 40t12.5 34.5t31 27t53.5 9.5z" />
    <glyph glyph-name="iucyrillic" unicode="&#x44e;" horiz-adv-x="688" 
d="M126 24q0 -31 -27 -31q-25 0 -25 31v412q0 32 26 32t26 -32v-172h66v21q0 105 54 140.5t165 35.5q110 0 162.5 -35.5t52.5 -140.5v-109q0 -105 -52.5 -140.5t-162.5 -35.5q-111 0 -165 35.5t-54 140.5v36h-66v-188zM411 52q93 0 128 22t35 103v107q0 81 -35 103t-128 22
q-95 0 -131 -22t-36 -103v-107q0 -81 36 -103t131 -22z" />
    <glyph glyph-name="iacyrillic" unicode="&#x44f;" horiz-adv-x="552" 
d="M134 331q0 -56 27.5 -69t105.5 -13h158v165h-158q-79 0 -106 -13.5t-27 -69.5zM182 205q-54 10 -77 37.5t-23 83.5q0 37 11 63t27.5 40t47.5 21.5t58 9t73 1.5h154q24 0 24 -35v-402q0 -31 -25 -31q-27 0 -27 31v174h-121q-55 0 -81 -20t-38 -65q-15 -54 -49 -87.5
t-77 -33.5q-36 0 -36 26t36 26q25 0 45 22t26 43l5 18q12 46 47 78z" />
    <glyph glyph-name="uni0450" unicode="&#x450;" 
d="M216 683q12 0 25 -15l96 -115q9 -11 9 -23q0 -11 -8 -18t-17 -7q-11 0 -25 15l-96 115q-9 11 -9 22t8 18.5t17 7.5zM536 285v-40h-422v-68q0 -43 8.5 -68t32.5 -37.5t51.5 -16t78.5 -3.5h134q32 0 43.5 14t11.5 48q0 33 26 33t26 -36q0 -23 -3 -40t-12.5 -34.5t-31 -27
t-53.5 -9.5h-141q-115 0 -169 35.5t-54 140.5v109q0 105 54 140.5t169 35.5h29q115 0 168.5 -35.5t53.5 -140.5zM314 409h-29q-97 0 -133.5 -20.5t-37.5 -91.5h370q-1 71 -37.5 91.5t-132.5 20.5z" />
    <glyph glyph-name="iocyrillic" unicode="&#x451;" 
d="M227 599q16 0 33.5 -12t17.5 -29t-17.5 -29t-33.5 -12q-17 0 -34 12t-17 29t17 29t34 12zM373 599q16 0 33.5 -12t17.5 -29t-17.5 -29t-33.5 -12q-17 0 -34 12t-17 29t17 29t34 12zM536 285v-40h-422v-68q0 -43 8.5 -68t32.5 -37.5t51.5 -16t78.5 -3.5h134q32 0 43.5 14
t11.5 48q0 33 26 33t26 -36q0 -23 -3 -40t-12.5 -34.5t-31 -27t-53.5 -9.5h-141q-115 0 -169 35.5t-54 140.5v109q0 105 54 140.5t169 35.5h29q115 0 168.5 -35.5t53.5 -140.5zM314 409h-29q-97 0 -133.5 -20.5t-37.5 -91.5h370q-1 71 -37.5 91.5t-132.5 20.5z" />
    <glyph glyph-name="djecyrillic" unicode="&#x452;" horiz-adv-x="620" 
d="M75 553v54q0 36 24 36q28 0 28 -36v-54h210q38 0 38 -28q0 -25 -38 -25h-210v-102q59 63 171 63h29q115 0 168.5 -35.5t53.5 -141.5v-360q0 -43 -8 -70t-24 -39t-32.5 -16t-42.5 -4q-38 0 -38 26t38 26q32 0 43.5 13.5t11.5 46.5v377q0 81 -36 103t-134 22h-29
q-84 0 -127.5 -45.5t-43.5 -132.5v-204q0 -34 -26 -34t-26 34v473q-38 0 -38 28q0 25 38 25z" />
    <glyph glyph-name="gjecyrillic" unicode="&#x453;" horiz-adv-x="479" 
d="M382 635l-96 -115q-13 -15 -25 -15q-8 0 -16.5 7.5t-8.5 17.5q0 12 9 23l96 115q14 15 25 15q9 0 17 -7.5t8 -18.5t-9 -22zM180 409q-32 0 -43.5 -13t-11.5 -46v-323q0 -34 -27 -34q-25 0 -25 34v308q0 70 21 98t79 28h254q35 0 35 -26t-35 -26h-247z" />
    <glyph glyph-name="ecyrillic" unicode="&#x454;" horiz-adv-x="583" 
d="M426 461q32 0 53.5 -9.5t31 -27t12.5 -34.5t3 -40q0 -36 -26 -36t-26 33q0 34 -11.5 48t-43.5 14h-134q-41 0 -65 -2t-47 -9t-34.5 -20.5t-18 -36t-6.5 -56.5v-21h204q36 0 36 -28q0 -24 -36 -24h-204v-36q0 -34 6.5 -56.5t18 -36t34.5 -20.5t47 -9t65 -2h134
q31 0 43 13.5t12 48.5q0 33 26 33t26 -35q0 -23 -3 -40t-12.5 -35t-31 -27.5t-53.5 -9.5h-141q-115 0 -169 35.5t-54 140.5v109q0 105 54 140.5t169 35.5h141z" />
    <glyph glyph-name="dzecyrillic" unicode="&#x455;" horiz-adv-x="586" 
d="M160 0q-32 0 -53.5 9.5t-31 27t-12.5 34.5t-3 40q0 36 26 36t26 -33q0 -34 11.5 -48t43.5 -14h248q59 0 59 74q0 37 -16.5 60.5t-42.5 23.5h-226q-129 0 -129 130q0 60 31 90.5t108 30.5h225q32 0 53.5 -9.5t31 -27.5t12.5 -35t3 -40q0 -35 -26 -35t-26 33q0 35 -12 48.5
t-43 13.5h-246q-59 0 -59 -69q0 -38 16.5 -58t42.5 -20h227q70 0 99 -39t29 -97q0 -62 -31.5 -94t-106.5 -32h-228z" />
    <glyph glyph-name="icyrillic" unicode="&#x456;" horiz-adv-x="200" 
d="M99 -12q-25 0 -25 32v420q0 33 26 33t26 -33v-420q0 -32 -27 -32zM100 642q16 0 33.5 -12t17.5 -29t-17.5 -29t-33.5 -12q-17 0 -34 12t-17 29t17 29t34 12z" />
    <glyph glyph-name="yicyrillic" unicode="&#x457;" horiz-adv-x="200" 
d="M27 606q16 0 33.5 -12t17.5 -29t-17.5 -29t-33.5 -12q-17 0 -34 12t-17 29t17 29t34 12zM173 606q16 0 33.5 -12t17.5 -29t-17.5 -29t-33.5 -12q-17 0 -34 12t-17 29t17 29t34 12zM99 -12q-25 0 -25 32v420q0 33 26 33t26 -33v-420q0 -32 -27 -32z" />
    <glyph glyph-name="jecyrillic" unicode="&#x458;" horiz-adv-x="202" 
d="M99 642q16 0 33.5 -12t17.5 -29t-17.5 -29t-33.5 -12q-17 0 -34 12t-17 29t17 29t34 12zM127 0q0 -56 -14.5 -91.5t-45 -53.5t-65.5 -24t-88 -6q-36 0 -36 27q0 25 36 25q92 0 126.5 22t34.5 101v432q0 36 27 36q25 0 25 -36v-432z" />
    <glyph glyph-name="ljecyrillic" unicode="&#x459;" horiz-adv-x="754" 
d="M544 212h-89v-160h89q41 0 68 8.5t37.5 23t13.5 25t3 23.5q0 16 -3 26.5t-13.5 24.5t-37.5 21.5t-68 7.5zM455 264h103q67 0 113.5 -30t46.5 -102t-47.5 -102t-119.5 -30h-148v409h-165q-36 0 -49 -13.5t-13 -45.5l-2 -224q0 -78 -27 -102t-81 -24q-36 0 -36 27
q0 25 36 25q32 0 43.5 13t11.5 45v225q0 70 22.5 98t87.5 28h224v-197z" />
    <glyph glyph-name="njecyrillic" unicode="&#x45a;" horiz-adv-x="798" 
d="M588 212h-89v-160h89q41 0 68 8.5t37.5 23t13.5 25t3 23.5q0 16 -3 26.5t-13.5 24.5t-37.5 21.5t-68 7.5zM496 264h98q41 0 76 -10t63.5 -41.5t28.5 -80.5q0 -72 -47.5 -102t-119.5 -30h-148v212h-321v-185q0 -34 -26 -34t-26 34v406q0 35 24 35q28 0 28 -35v-169h317
v169q0 35 25 35q28 0 28 -35v-169z" />
    <glyph glyph-name="tshecyrillic" unicode="&#x45b;" horiz-adv-x="619" 
d="M75 553v54q0 36 24 36q28 0 28 -36v-54h210q38 0 38 -28q0 -25 -38 -25h-210v-102q59 63 171 63h29q115 0 168.5 -35.5t53.5 -140.5v-258q0 -34 -25 -34q-27 0 -27 34v257q0 43 -8.5 68t-32 37.5t-51 16t-78.5 3.5h-29q-84 0 -127.5 -45.5t-43.5 -132.5v-204
q0 -34 -26 -34t-26 34v473q-38 0 -38 28q0 25 38 25z" />
    <glyph glyph-name="kjecyrillic" unicode="&#x45c;" horiz-adv-x="562" 
d="M371 635l-96 -115q-13 -15 -25 -15q-8 0 -16.5 7.5t-8.5 17.5q0 12 9 23l96 115q14 15 25 15q9 0 17 -7.5t8 -18.5t-9 -22zM126 257h108q19 0 37.5 22t37 53t41.5 62t59 53t80 22q36 0 36 -26t-36 -26q-38 0 -68 -30.5t-61 -80t-53 -69.5q48 -18 79.5 -52t42 -64
t25.5 -53t35 -23q36 0 36 -26t-36 -26q-40 0 -64.5 22t-38.5 53t-32.5 62t-61 53t-110.5 22h-56v-181q0 -31 -27 -31q-25 0 -25 31v412q0 32 26 32t26 -32v-179z" />
    <glyph glyph-name="iicyrillic_grave" unicode="&#x45d;" horiz-adv-x="604" 
d="M227 683q12 0 25 -15l96 -115q9 -11 9 -23q0 -11 -8 -18t-17 -7q-11 0 -25 15l-96 115q-9 11 -9 22t8 18.5t17 7.5zM529 461v-433q0 -35 -25 -35q-27 0 -27 36v365l-346 -394h-56v433q0 35 25 35q27 0 27 -36v-369l349 398h53z" />
    <glyph glyph-name="ushortcyrillic" unicode="&#x45e;" horiz-adv-x="619" 
d="M458 614q0 -65 -19 -91t-72 -26h-117q-53 0 -72 26.5t-19 90.5v27h52v-43q0 -29 9.5 -39t37.5 -10h102q28 0 37 9.5t9 39.5v43h52v-27zM544 -87q0 -65 -19 -91.5t-72 -26.5h-283q-32 0 -53.5 9.5t-31 27.5t-12.5 35t-3 40q0 35 26 35t26 -33q0 -35 12 -48.5t43 -13.5h269
q29 0 37.5 10t8.5 40v166q-59 -63 -171 -63h-29q-115 0 -168.5 35.5t-53.5 140.5v258q0 34 25 34q27 0 27 -34v-257q0 -43 8.5 -68t32 -37.5t51 -16t78.5 -3.5h29q85 0 128 45.5t43 132.5v204q0 34 26 34t26 -34v-521z" />
    <glyph glyph-name="dzhecyrillic" unicode="&#x45f;" horiz-adv-x="604" 
d="M276 -57v57h-201v434q0 34 25 34q27 0 27 -34v-382h350v382q0 34 26 34t26 -34v-434h-201v-57q0 -35 -26 -35t-26 35z" />
    <glyph glyph-name="Yatcyrillic" unicode="&#x462;" horiz-adv-x="650" 
d="M206 608q0 35 25 35q28 0 28 -35v-102h150q34 0 34 -27q0 -24 -34 -24h-150v-49h140q97 0 156 -56.5t59 -149.5t-58.5 -150t-156.5 -57h-167q-26 0 -26 35v426h-144q-33 0 -33 26q0 25 33 25h144v103zM259 354v-309h140q81 0 122 42t41 113q0 69 -41 111.5t-122 42.5
h-140z" />
    <glyph glyph-name="yatcyrillic" unicode="&#x463;" horiz-adv-x="659" 
d="M217 0q-27 0 -27 35v374h-139q-33 0 -33 26t33 26h139v150q0 32 25 32q27 0 27 -32v-150h142q34 0 34 -27q0 -25 -34 -25h-142v-105h197q82 0 131.5 -40t49.5 -112q0 -88 -55 -120t-167 -32h-181zM398 52q95 0 132.5 19t37.5 81q0 61 -39.5 80.5t-133.5 19.5h-153v-200
h156z" />
    <glyph glyph-name="Fitacyrillic" unicode="&#x472;" horiz-adv-x="594" 
d="M399 327q15 0 34.5 8.5t31.5 16.5l12 9v43q0 89 -47 139t-133 50t-133 -50t-47 -139v-60q29 23 63 23q36 0 119 -20t100 -20zM529 228q0 -110 -65 -173.5t-167 -63.5t-167 63t-65 174v180q0 111 65 174t167 63t167 -63.5t65 -173.5v-180zM477 232v66q-31 -23 -65 -23
q-36 0 -119 20t-100 20q-15 0 -34 -8.5t-31 -16.5l-11 -8v-50q0 -90 47 -139.5t133 -49.5t133 49.5t47 139.5z" />
    <glyph glyph-name="fitacyrillic" unicode="&#x473;" horiz-adv-x="586" 
d="M302 0h-17q-115 0 -169 35.5t-54 140.5v109q0 105 54 140.5t169 35.5h17q115 0 168.5 -35.5t53.5 -140.5v-109q0 -105 -53.5 -140.5t-168.5 -35.5zM114 254q29 23 63 23q36 0 118 -20t99 -20q15 0 34.5 8.5t31.5 16.5l12 9v13q0 43 -8.5 68t-32 37.5t-51 16t-78.5 3.5
h-17q-51 0 -78.5 -3.5t-51.5 -16t-32.5 -37.5t-8.5 -68v-30zM472 208q-31 -23 -65 -23q-36 0 -118 20t-99 20q-15 0 -34 -8.5t-30 -16.5l-12 -8v-15q0 -43 8.5 -68t32.5 -37.5t51.5 -16t78.5 -3.5h17q51 0 78.5 3.5t51 16t32 37.5t8.5 68v31z" />
    <glyph glyph-name="Gheupturncyrillic" unicode="&#x490;" horiz-adv-x="560" 
d="M532 584h-343q-32 0 -43.5 -13.5t-11.5 -45.5v-498q0 -34 -27 -34q-25 0 -25 34v482q0 70 21 98.5t79 28.5h298v77q0 35 27 35q25 0 25 -35v-129z" />
    <glyph glyph-name="gheupturncyrillic" unicode="&#x491;" horiz-adv-x="482" 
d="M180 409q-32 0 -43.5 -13t-11.5 -46v-323q0 -34 -27 -34q-25 0 -25 34v308q0 70 21 98t79 28h237v77q0 35 27 35q25 0 25 -35v-129h-282z" />
    <glyph glyph-name="uni1E02" unicode="&#x1e02;" horiz-adv-x="605" 
d="M274 789q16 0 33.5 -12t17.5 -29t-17.5 -29t-33.5 -12q-17 0 -34 12t-17 29t17 29t34 12zM136 332v-280h190q98 0 134 22.5t36 103.5v28q0 81 -35 103.5t-129 22.5h-196zM84 36v564q0 36 24 36h180q111 0 164.5 -31t53.5 -119q0 -76 -49 -112q46 -17 68.5 -55.5
t22.5 -109.5v-29q0 -108 -53.5 -144t-168.5 -36h-218q-24 0 -24 36zM288 384q92 0 129 19t37 78q0 63 -36.5 80.5t-129.5 17.5h-152v-195h152z" />
    <glyph glyph-name="uni1E03" unicode="&#x1e03;" horiz-adv-x="611" 
d="M312 594q16 0 33.5 -12t17.5 -29t-17.5 -29t-33.5 -12q-17 0 -34 12t-17 29t17 29t34 12zM127 398q59 63 171 63h29q115 0 168.5 -35.5t53.5 -140.5v-109q0 -105 -53.5 -140.5t-168.5 -35.5h-29q-112 0 -171 63v-35q0 -35 -26 -35t-26 34v580q0 36 24 36q28 0 28 -36
v-209zM298 409q-171 0 -171 -177v-4q0 -176 171 -176h29q51 0 78.5 3.5t51 16t32 37.5t8.5 68v107q0 43 -8.5 68t-32 37.5t-51 16t-78.5 3.5h-29z" />
    <glyph glyph-name="uni1E0A" unicode="&#x1e0a;" horiz-adv-x="620" 
d="M300 789q16 0 33.5 -12t17.5 -29t-17.5 -29t-33.5 -12q-17 0 -34 12t-17 29t17 29t34 12zM548 456v-276q0 -108 -53.5 -144t-168.5 -36h-218q-24 0 -24 36v564q0 36 24 36h224q54 0 90 -6.5t66.5 -25.5t45 -55.5t14.5 -92.5zM496 180v276q0 82 -35 105t-129 23h-196v-532
h190q98 0 134 22.5t36 105.5z" />
    <glyph glyph-name="uni1E0B" unicode="&#x1e0b;" horiz-adv-x="611" 
d="M299 594q16 0 33.5 -12t17.5 -29t-17.5 -29t-33.5 -12q-17 0 -34 12t-17 29t17 29t34 12zM484 461v146q0 36 28 36q24 0 24 -36v-580q0 -34 -26 -34t-26 35v35q-59 -63 -171 -63h-29q-115 0 -168.5 35.5t-53.5 140.5v109q0 105 53.5 140.5t168.5 35.5h200zM484 409h-200
q-51 0 -78.5 -3.5t-51 -16t-32 -37.5t-8.5 -68v-107q0 -43 8.5 -68t32 -37.5t51 -16t78.5 -3.5h29q171 0 171 176v181z" />
    <glyph glyph-name="uni1E1E" unicode="&#x1e1e;" horiz-adv-x="577" 
d="M311 788q16 0 33.5 -12t17.5 -29t-17.5 -29t-33.5 -12q-17 0 -34 12t-17 29t17 29t34 12zM136 27q0 -34 -26 -34t-26 35v572q0 36 24 36h406q34 0 34 -28q0 -24 -34 -24h-378v-200h259q36 0 36 -28q0 -24 -36 -24h-259v-305z" />
    <glyph glyph-name="uni1E1F" unicode="&#x1e1f;" horiz-adv-x="323" 
d="M213 759q16 0 33.5 -12t17.5 -29t-17.5 -29t-33.5 -12q-17 0 -34 12t-17 29t17 29t34 12zM293 584q-47 0 -72.5 -3.5t-48 -15.5t-31.5 -37t-9 -67h138q36 0 36 -28q0 -24 -36 -24h-138v-381q0 -35 -28 -35q-24 0 -24 35v382q-31 2 -31 27q0 22 31 24q1 55 15.5 91t45 54
t65 24t87.5 6q36 0 36 -28q0 -24 -36 -24z" />
    <glyph glyph-name="uni1E40" unicode="&#x1e40;" horiz-adv-x="653" 
d="M326 718q16 0 33.5 -12t17.5 -29t-17.5 -29t-33.5 -12q-17 0 -34 12t-17 29t17 29t34 12zM326 279q-11 0 -17 8l-173 258v-517q0 -35 -26 -35t-26 34v581q0 35 24 35q18 0 30 -19l188 -278l189 278q13 19 29 19q25 0 25 -35v-581q0 -34 -27 -34q-25 0 -25 35v517
l-173 -258q-6 -8 -18 -8z" />
    <glyph glyph-name="uni1E41" unicode="&#x1e41;" horiz-adv-x="830" 
d="M415 611q16 0 33.5 -12t17.5 -29t-17.5 -29t-33.5 -12q-17 0 -34 12t-17 29t17 29t34 12zM257 409q-62 0 -96.5 -46t-34.5 -132v-204q0 -34 -26 -34t-26 34v406q0 35 24 35q28 0 28 -36v-34q28 34 57 48.5t74 14.5q68 0 110 -16.5t61 -63.5q51 80 147 80q92 0 138 -36
t46 -140v-258q0 -34 -26 -34t-26 34v257q0 43 -6.5 68t-24.5 37.5t-39.5 16t-61.5 3.5q-63 0 -98 -46t-35 -132v-204q0 -34 -25 -34q-27 0 -27 34v257q0 81 -27.5 103t-105.5 22z" />
    <glyph glyph-name="uni1E56" unicode="&#x1e56;" horiz-adv-x="540" 
d="M256 788q16 0 33.5 -12t17.5 -29t-17.5 -29t-33.5 -12q-17 0 -34 12t-17 29t17 29t34 12zM136 25q0 -32 -27 -32q-25 0 -25 32v575q0 36 24 36h181q108 0 162.5 -33t54.5 -122q0 -75 -45.5 -114.5t-127.5 -39.5h-197v-302zM289 379q92 0 128.5 20t36.5 82q0 64 -37 83.5
t-128 19.5h-153v-205h153z" />
    <glyph glyph-name="uni1E57" unicode="&#x1e57;" horiz-adv-x="611" 
d="M333 611q16 0 33.5 -12t17.5 -29t-17.5 -29t-33.5 -12q-17 0 -34 12t-17 29t17 29t34 12zM497 284q0 43 -8.5 68t-32 37.5t-51 16t-78.5 3.5h-29q-171 0 -171 -177v-180h201q98 0 133.5 22t35.5 103v107zM549 176q0 -105 -53.5 -140.5t-167.5 -35.5h-201v-147
q0 -35 -28 -35q-24 0 -24 35v581q0 34 26 34t26 -35v-35q59 63 171 63h29q115 0 168.5 -35.5t53.5 -140.5v-109z" />
    <glyph glyph-name="uni1E60" unicode="&#x1e60;" horiz-adv-x="599" 
d="M300 788q16 0 33.5 -12t17.5 -29t-17.5 -29t-33.5 -12q-17 0 -34 12t-17 29t17 29t34 12zM113 481q0 -40 17.5 -68.5t42.5 -33.5l237 -51q67 -15 97 -62t30 -110q0 -67 -39.5 -115.5t-130.5 -48.5h-83q-57 0 -94 6.5t-68.5 25t-46 55t-14.5 93.5q0 33 28 33q25 0 25 -33
q0 -83 35.5 -105.5t134.5 -22.5h102q53 0 76 36t23 77q0 49 -19.5 79.5t-40.5 35.5l-235 52q-70 15 -99.5 52.5t-29.5 105.5q0 67 41 114.5t136 47.5h76q57 0 93.5 -6.5t68.5 -24.5t46.5 -54t14.5 -93q0 -33 -27 -33q-26 0 -26 33q0 83 -35 104.5t-135 21.5h-98
q-54 0 -78.5 -35t-24.5 -76z" />
    <glyph glyph-name="uni1E61" unicode="&#x1e61;" horiz-adv-x="586" 
d="M298 604q16 0 33.5 -12t17.5 -29t-17.5 -29t-33.5 -12q-17 0 -34 12t-17 29t17 29t34 12zM160 0q-32 0 -53.5 9.5t-31 27t-12.5 34.5t-3 40q0 36 26 36t26 -33q0 -34 11.5 -48t43.5 -14h248q59 0 59 74q0 37 -16.5 60.5t-42.5 23.5h-226q-129 0 -129 130q0 60 31 90.5
t108 30.5h225q32 0 53.5 -9.5t31 -27.5t12.5 -35t3 -40q0 -35 -26 -35t-26 33q0 35 -12 48.5t-43 13.5h-246q-59 0 -59 -69q0 -38 16.5 -58t42.5 -20h227q70 0 99 -39t29 -97q0 -62 -31.5 -94t-106.5 -32h-228z" />
    <glyph glyph-name="uni1E6A" unicode="&#x1e6a;" horiz-adv-x="481" 
d="M240 789q16 0 33.5 -12t17.5 -29t-17.5 -29t-33.5 -12q-17 0 -34 12t-17 29t17 29t34 12zM421 636q33 0 33 -27q0 -25 -33 -25h-152v-559q0 -32 -29 -32q-26 0 -26 32v559h-154q-33 0 -33 26t33 26h361z" />
    <glyph glyph-name="uni1E6B" unicode="&#x1e6b;" horiz-adv-x="344" 
d="M104 744q16 0 33.5 -12t17.5 -29t-17.5 -29t-33.5 -12q-17 0 -34 12t-17 29t17 29t34 12zM130 177q0 -81 34.5 -103t126.5 -22q35 0 35 -24q0 -28 -35 -28q-108 0 -160.5 36t-52.5 140v234q-31 2 -31 27q0 22 31 24v104q0 36 24 36q28 0 28 -36v-104h138q36 0 36 -28
q0 -24 -36 -24h-138v-232z" />
    <glyph glyph-name="Wgrave" unicode="&#x1e80;" horiz-adv-x="915" 
d="M368 819q12 0 24 -13l70 -69q12 -14 12 -25q0 -8 -7 -16t-18 -8q-13 0 -25 13l-69 68q-13 15 -13 25q0 8 8 16.5t18 8.5zM664 72l172 555q8 22 28 22q24 0 24 -19q0 -6 -4 -18l-192 -612h-58l-177 553l-176 -553h-57l-193 616q-4 12 -4 18q0 19 24 19q20 0 28 -22
l174 -559l175 554q9 26 29 26q23 0 31 -26z" />
    <glyph glyph-name="wgrave" unicode="&#x1e81;" horiz-adv-x="792" 
d="M290 684q12 0 25 -15l96 -115q9 -10 9 -23q0 -11 -8 -18t-17 -7q-11 0 -25 15l-96 115q-9 10 -9 22q0 11 8 18.5t17 7.5zM758 436l-155 -436h-79l-127 374l-137 -374h-79l-146 436q-4 12 -4 18q0 19 24 19q20 0 28 -22l140 -403l146 398q8 21 29 21q20 0 27 -21l140 -398
l145 403q8 22 28 22q24 0 24 -19q0 -6 -4 -18z" />
    <glyph glyph-name="Wacute" unicode="&#x1e82;" horiz-adv-x="915" 
d="M557 770l-70 -69q-12 -13 -24 -13q-10 0 -18 7.5t-8 16.5q0 11 13 26l69 68q12 13 25 13q11 0 18 -8.5t7 -16.5q0 -10 -12 -24zM664 72l172 555q8 22 28 22q24 0 24 -19q0 -6 -4 -18l-192 -612h-58l-177 553l-176 -553h-57l-193 616q-4 12 -4 18q0 19 24 19q20 0 28 -22
l174 -559l175 554q9 26 29 26q23 0 31 -26z" />
    <glyph glyph-name="wacute" unicode="&#x1e83;" horiz-adv-x="792" 
d="M528 635l-96 -115q-14 -15 -25 -15q-8 0 -16.5 7.5t-8.5 17.5q0 12 9 23l96 115q13 15 25 15q9 0 17 -7.5t8 -18.5t-9 -22zM758 436l-155 -436h-79l-127 374l-137 -374h-79l-146 436q-4 12 -4 18q0 19 24 19q20 0 28 -22l140 -403l146 398q8 21 29 21q20 0 27 -21
l140 -398l145 403q8 22 28 22q24 0 24 -19q0 -6 -4 -18z" />
    <glyph glyph-name="Wdieresis" unicode="&#x1e84;" horiz-adv-x="915" 
d="M383 796q16 0 33.5 -12t17.5 -29t-17.5 -29t-33.5 -12q-17 0 -34 12t-17 29t17 29t34 12zM529 796q16 0 33.5 -12t17.5 -29t-17.5 -29t-33.5 -12q-17 0 -34 12t-17 29t17 29t34 12zM664 72l172 555q8 22 28 22q24 0 24 -19q0 -6 -4 -18l-192 -612h-58l-177 553l-176 -553
h-57l-193 616q-4 12 -4 18q0 19 24 19q20 0 28 -22l174 -559l175 554q9 26 29 26q23 0 31 -26z" />
    <glyph glyph-name="wdieresis" unicode="&#x1e85;" horiz-adv-x="792" 
d="M323 616q16 0 33.5 -12t17.5 -29t-17.5 -29t-33.5 -12q-17 0 -34 12t-17 29t17 29t34 12zM469 616q16 0 33.5 -12t17.5 -29t-17.5 -29t-33.5 -12q-17 0 -34 12t-17 29t17 29t34 12zM758 436l-155 -436h-79l-127 374l-137 -374h-79l-146 436q-4 12 -4 18q0 19 24 19
q20 0 28 -22l140 -403l146 398q8 21 29 21q20 0 27 -21l140 -398l145 403q8 22 28 22q24 0 24 -19q0 -6 -4 -18z" />
    <glyph glyph-name="uni1EA0" unicode="&#x1ea0;" horiz-adv-x="570" 
d="M285 -77q16 0 33.5 -12t17.5 -29t-17.5 -29t-33.5 -12q-17 0 -34 12t-17 29t17 29t34 12zM316 636l227 -611q3 -9 3 -16q0 -13 -9 -19t-17 -6q-17 0 -27 23l-71 192h-274l-71 -192q-10 -23 -27 -23q-8 0 -17 6t-9 19q0 7 3 16l227 611h62zM284 560l-116 -309h234z" />
    <glyph glyph-name="uni1EA1" unicode="&#x1ea1;" horiz-adv-x="554" 
d="M283 243q-51 0 -78.5 -3.5t-51.5 -16t-32.5 -37.5t-8.5 -68q0 -26 17 -46t38 -20h93q84 0 127 45.5t43 130.5v15h-147zM283 295h147v57q0 31 -11.5 44t-43.5 13h-141q-122 0 -122 -60q0 -35 -27 -35q-25 0 -25 35q0 58 46 85t121 27h155q58 0 79 -28t21 -98v-308
q0 -34 -26 -34t-26 35v35q-57 -63 -170 -63h-93q-47 0 -77 33.5t-30 89.5q0 101 54.5 136.5t168.5 35.5zM269 -63q16 0 33.5 -12t17.5 -29t-17.5 -29t-33.5 -12q-17 0 -34 12t-17 29t17 29t34 12z" />
    <glyph glyph-name="uni1EA2" unicode="&#x1ea2;" horiz-adv-x="570" 
d="M316 636l227 -611q3 -9 3 -16q0 -13 -9 -19t-17 -6q-17 0 -27 23l-71 192h-274l-71 -192q-10 -23 -27 -23q-8 0 -17 6t-9 19q0 7 3 16l227 611h62zM284 560l-116 -309h234zM270 764q0 -18 -21 -18t-21 18q0 28 22 43t47 15q29 0 46 -19t17 -49q0 -18 -8.5 -30
t-18.5 -16.5t-18.5 -11t-8.5 -15.5q0 -19 -20 -19q-11 0 -17.5 6t-6.5 13q0 20 8.5 32.5t18.5 16.5t18.5 11.5t8.5 17.5t-7 15.5t-14 5.5q-25 0 -25 -16z" />
    <glyph glyph-name="uni1EA3" unicode="&#x1ea3;" horiz-adv-x="554" 
d="M283 243q-51 0 -78.5 -3.5t-51.5 -16t-32.5 -37.5t-8.5 -68q0 -26 17 -46t38 -20h93q84 0 127 45.5t43 130.5v15h-147zM283 295h147v57q0 31 -11.5 44t-43.5 13h-141q-122 0 -122 -60q0 -35 -27 -35q-25 0 -25 35q0 58 46 85t121 27h155q58 0 79 -28t21 -98v-308
q0 -34 -26 -34t-26 35v35q-57 -63 -170 -63h-93q-47 0 -77 33.5t-30 89.5q0 101 54.5 136.5t168.5 35.5zM266 618q0 -18 -21 -18t-21 18q0 28 22 43t47 15q29 0 46 -19t17 -49q0 -18 -8.5 -30t-18.5 -16.5t-18.5 -11t-8.5 -15.5q0 -19 -20 -19q-11 0 -17.5 6t-6.5 13
q0 20 8.5 32.5t18.5 16.5t18.5 11.5t8.5 17.5t-7 15.5t-14 5.5q-25 0 -25 -16z" />
    <glyph glyph-name="uni1EA4" unicode="&#x1ea4;" horiz-adv-x="562" 
d="M25 10q0 8 3 14l227 528h52l227 -528q3 -6 3 -14q0 -22 -26 -22q-21 0 -30 20l-70 169h-260l-70 -169q-9 -20 -30 -20q-26 0 -26 22zM174 229h214l-108 250zM145 599l105 132h59l107 -132q6 -8 6 -18q0 -23 -23 -23q-5 0 -9.5 2t-6 3.5t-6.5 7.5t-6 7l-91 96l-90 -96
q-2 -2 -5 -6t-5 -5.5t-4.5 -4t-6 -3.5t-7.5 -1q-23 0 -23 23q0 10 6 18zM484 741l-70 -69q-12 -13 -24 -13q-10 0 -18 7.5t-8 16.5q0 11 13 26l69 68q12 13 25 13q11 0 18 -8.5t7 -16.5q0 -10 -12 -24z" />
    <glyph glyph-name="uni1EA5" unicode="&#x1ea5;" horiz-adv-x="554" 
d="M283 243q-51 0 -78.5 -3.5t-51.5 -16t-32.5 -37.5t-8.5 -68q0 -26 17 -46t38 -20h93q84 0 127 45.5t43 130.5v15h-147zM283 295h147v57q0 31 -11.5 44t-43.5 13h-141q-122 0 -122 -60q0 -35 -27 -35q-25 0 -25 35q0 58 46 85t121 27h155q58 0 79 -28t21 -98v-308
q0 -34 -26 -34t-26 35v35q-57 -63 -170 -63h-93q-47 0 -77 33.5t-30 89.5q0 101 54.5 136.5t168.5 35.5zM131 554l105 132h59l107 -132q6 -8 6 -18q0 -23 -23 -23q-5 0 -9.5 2t-6 3.5t-6.5 7.5t-6 7l-91 96l-90 -96q-2 -2 -5 -6t-5 -5.5t-4.5 -4t-6 -3.5t-7.5 -1
q-23 0 -23 23q0 10 6 18zM470 696l-70 -69q-12 -13 -24 -13q-10 0 -18 7.5t-8 16.5q0 11 13 26l69 68q12 13 25 13q11 0 18 -8.5t7 -16.5q0 -10 -12 -24z" />
    <glyph glyph-name="uni1EA6" unicode="&#x1ea6;" horiz-adv-x="558" 
d="M25 10q0 8 3 14l227 528h52l227 -528q3 -6 3 -14q0 -22 -26 -22q-21 0 -30 20l-70 169h-260l-70 -169q-9 -20 -30 -20q-26 0 -26 22zM174 229h214l-108 250zM145 591l105 132h59l107 -132q6 -8 6 -18q0 -23 -23 -23q-5 0 -9.5 2t-6 3.5t-6.5 7.5t-6 7l-91 96l-90 -96
q-2 -2 -5 -6t-5 -5.5t-4.5 -4t-6 -3.5t-7.5 -1q-23 0 -23 23q0 10 6 18zM90 782q12 0 24 -13l70 -69q12 -14 12 -25q0 -8 -7 -16t-18 -8q-13 0 -25 13l-69 68q-13 15 -13 25q0 8 8 16.5t18 8.5z" />
    <glyph glyph-name="uni1EA7" unicode="&#x1ea7;" horiz-adv-x="554" 
d="M283 243q-51 0 -78.5 -3.5t-51.5 -16t-32.5 -37.5t-8.5 -68q0 -26 17 -46t38 -20h93q84 0 127 45.5t43 130.5v15h-147zM283 295h147v57q0 31 -11.5 44t-43.5 13h-141q-122 0 -122 -60q0 -35 -27 -35q-25 0 -25 35q0 58 46 85t121 27h155q58 0 79 -28t21 -98v-308
q0 -34 -26 -34t-26 35v35q-57 -63 -170 -63h-93q-47 0 -77 33.5t-30 89.5q0 101 54.5 136.5t168.5 35.5zM131 554l105 132h59l107 -132q6 -8 6 -18q0 -23 -23 -23q-5 0 -9.5 2t-6 3.5t-6.5 7.5t-6 7l-91 96l-90 -96q-2 -2 -5 -6t-5 -5.5t-4.5 -4t-6 -3.5t-7.5 -1
q-23 0 -23 23q0 10 6 18zM76 745q12 0 24 -13l70 -69q12 -14 12 -25q0 -8 -7 -16t-18 -8q-13 0 -25 13l-69 68q-13 15 -13 25q0 8 8 16.5t18 8.5z" />
    <glyph glyph-name="uni1EA8" unicode="&#x1ea8;" horiz-adv-x="561" 
d="M24 10q0 8 3 14l227 528h52l227 -528q3 -6 3 -14q0 -22 -26 -22q-21 0 -30 20l-70 169h-260l-70 -169q-9 -20 -30 -20q-26 0 -26 22zM173 229h214l-108 250zM149 599l105 132h59l107 -132q6 -8 6 -18q0 -23 -23 -23q-5 0 -9.5 2t-6 3.5t-6.5 7.5t-6 7l-91 96l-90 -96
q-2 -2 -5 -6t-5 -5.5t-4.5 -4t-6 -3.5t-7.5 -1q-23 0 -23 23q0 10 6 18zM408 764q0 -18 -21 -18t-21 18q0 28 22 43t47 15q29 0 46 -19t17 -49q0 -18 -8.5 -30t-18.5 -16.5t-18.5 -11t-8.5 -15.5q0 -19 -20 -19q-11 0 -17.5 6t-6.5 13q0 20 8.5 32.5t18.5 16.5t18.5 11.5
t8.5 17.5t-7 15.5t-14 5.5q-25 0 -25 -16z" />
    <glyph glyph-name="uni1EA9" unicode="&#x1ea9;" horiz-adv-x="554" 
d="M283 243q-51 0 -78.5 -3.5t-51.5 -16t-32.5 -37.5t-8.5 -68q0 -26 17 -46t38 -20h93q84 0 127 45.5t43 130.5v15h-147zM283 295h147v57q0 31 -11.5 44t-43.5 13h-141q-122 0 -122 -60q0 -35 -27 -35q-25 0 -25 35q0 58 46 85t121 27h155q58 0 79 -28t21 -98v-308
q0 -34 -26 -34t-26 35v35q-57 -63 -170 -63h-93q-47 0 -77 33.5t-30 89.5q0 101 54.5 136.5t168.5 35.5zM131 554l105 132h59l107 -132q6 -8 6 -18q0 -23 -23 -23q-5 0 -9.5 2t-6 3.5t-6.5 7.5t-6 7l-91 96l-90 -96q-2 -2 -5 -6t-5 -5.5t-4.5 -4t-6 -3.5t-7.5 -1
q-23 0 -23 23q0 10 6 18zM390 719q0 -18 -21 -18t-21 18q0 28 22 43t47 15q29 0 46 -19t17 -49q0 -18 -8.5 -30t-18.5 -16.5t-18.5 -11t-8.5 -15.5q0 -19 -20 -19q-11 0 -17.5 6t-6.5 13q0 20 8.5 32.5t18.5 16.5t18.5 11.5t8.5 17.5t-7 15.5t-14 5.5q-25 0 -25 -16z" />
    <glyph glyph-name="uni1EAA" unicode="&#x1eaa;" horiz-adv-x="556" 
d="M22 10q0 8 3 14l227 528h52l227 -528q3 -6 3 -14q0 -22 -26 -22q-21 0 -30 20l-70 169h-260l-70 -169q-9 -20 -30 -20q-26 0 -26 22zM171 229h214l-108 250zM336 778q3 0 8 4l31 28q13 9 22 9q10 0 18 -6t8 -17q0 -14 -14 -27l-47 -39q-8 -8 -19 -8q-2 0 -4 0.5t-3.5 0.5
t-3.5 1h-1l-98 36q-2 2 -6 2q-3 0 -8 -4l-31 -28q-13 -9 -22 -9t-17 6.5t-8 17.5q0 15 14 26l46 38q7 9 19 9q2 0 7 -1t6 -1l98 -36zM147 599l105 117h59l107 -117q6 -6 6 -18q0 -23 -23 -23q-13 0 -33 20l-86 81l-85 -81q-20 -20 -33 -20q-23 0 -23 23q0 12 6 18z" />
    </font>
</defs>
</svg>
